Ссылка на приватное зеркало нашего сайта всего за 1$. Внимание количество ограничено!!!

2 сезон

iTunes

1 сезон

1

iTunes

iTunes

iTunes

1 сезон

RePack

30

ИГРА 18+

pack

ВАЖНО

!!Акция!!

Alien_RageХит недели

RePack

MK11
pack

Забери бонус

RePack

jed

!!Акция!!

Alien_Rage

RePack

fifa19

RePack

Assassins Creed: Odyssey

RePack

NEED FOR SPEED™ PAYBACK

4 сезон

9 сезон

Бесстыжие 9 сезон

Все сериалы

все сериалы на PB.wtf

RePack

FAR CRY 5
  

Сваты 4 / Серии: 16 из 16 (Андрей Яковлев) [2010, Лирическая комедия, DVD5] pb.wtf

Сваты 4 через торрент pb.wtf

Размер: 3.9 GB | Добавлен: 9 лет 1 мес. назад | Торрент скачан:1181 раз
Скачать  

17-09-2011 22:16 Сваты 4 Скачать торрент  

Сваты 4

Год выпуска: 2010
Страна: Украина
Жанр: Лирическая комедия
Производство: КИЕВФИЛЬМ
Перевод: оригинал

Продолжительность: 16 х 00:52
Субтитры: Нет

Режиссёр: Андрей Яковлев

В ролях: Федор Добронравов, Татьяна Кравченко, Анатолий Васильев, Людмила Артемьева, София Стеценко, Даниил Белых, Инна Королёва, Руслана Писанка, Олеся Железняк, Александр Феклистов

Описание: На этот раз бабушки и дедушки отправятся в Крым. Но они туда поедут не столько отдыхать, сколько опекать свою любимую внучку Женечку, которую родители отправили в детский лагерь «Артек». Сваты так и не научились жить без внучки, но они и не научились жить друг с другом!

Сэмпл: http://multi-up.com/544910

Качество: DVD5
Формат: DVD-Video
Видео кодек: MPEG2
Аудио кодек: AC3
Видео: PAL 4:3 (352x288) 3812 Кбит/сек
Аудио: Russian (Dolby AC3, 2 ch) 138Kbps
Общее
Полное имя : Z:\Сериалы\Сваты\Сваты 4\VIDEO_TS\VTS_01_1.VOB
Формат : MPEG-PS
Размер файла : 1000 Мбайт
Продолжительность : 36 м.
Общий поток : 3812 Кбит/сек
Библиотека кодирования : encoded by TMPGEnc 4.0 XPress Version. 4.7.7.307
Видео
Идентификатор : 224 (0xE0)
Формат : MPEG Video
Версия формата : Version 2
Профиль формата : Main@Main
Параметр BVOP формата : Да
Параметр матрицы формата : Выборочная
Параметр GOP формата : M=3, N=16
Продолжительность : 36 м.
Вид битрейта : Переменный
Битрейт : 3672 Кбит/сек
Максимальный битрейт : 9800 Кбит/сек
Ширина : 352 пикселя
Высота : 288 пикселей
Соотношение сторон : 4:3
Частота кадров : 25,000 кадров/сек
Стандарт вещания : PAL
Цветовое пространство : YUV
Субдискретизация насыщенности : 4:2:0
Битовая глубина : 8 бит
Тип развёртки : Прогрессивная
Метод сжатия : С потерями
Бит/(Пиксели*Кадры) : 1.449
Размер потока : 963 Мбайт (96%)
Библиотека кодирования : TMPGEnc XPress 4.7.7.307
Аудио
Идентификатор : 189 (0xBD)-128 (0x80)
Формат : AC-3
Формат/Информация : Audio Coding 3
Расширение режима : CM (complete main)
Режим смешивания : DVD-Video
Продолжительность : 36 м.
Вид битрейта : Постоянный
Битрейт : 64,0 Кбит/сек
Каналы : 1 канал
Расположение каналов : Front: C
Частота : 48,0 КГц
Битовая глубина : 16 бит
Метод сжатия : С потерями
Размер потока : 16,8 Мбайт (2%)
Меню
Size: 3.90 Gb ( 4 089 164,00 KBytes ) - DVD-5
Enabled regions: 1, 2, 3, 4, 5, 6, 7, 8
VTS_01 :
Play Length: 00:47:19+00:49:04+00:50:51+00:47:59+00:50:51+00:50:37+00:48:12+00:50:23+00:50:35+00:50:45+00:50:04+00:46:58
Video: PAL 4:3 (352x288) VBR
Audio:
English (Dolby AC3, 1 ch)
VTS_02 :
Play Length: 00:50:52+00:50:28+00:47:42+00:50:46
Video: PAL 4:3 (352x288) VBR
Audio:
English (Dolby AC3, 1 ch)
* Menus Information *
VIDEO_TS Menu
Video:
PAL 4:3 (720x576) VBR
English Language Unit :
Title Menu
VTS_01 Menu
Video:
PAL 4:3 (720x576) VBR
English Language Unit :
Root Menu
VTS_02 Menu
Video:
PAL 4:3 (720x576) VBR
English Language Unit :
Root Menu
pb.wtf



Скачать Сваты 4 через торрент http://i26.fastpic.ru/big/2011/0824/2d/20f2a027e97b353d8993e0d729a09c2d.png Скачать фильм Сваты 4 через торрент бесплантно в хорошем качестве Описание: На этот раз бабушки и дедушки отправятся в Крым. Но они туда поедут не столько отдыхать, сколько опекать свою любимую внучку ... 10 10 21
Info! Золотая раздача, скачанное не засчитывается.
Торрент: Зарегистрирован [2011-09-17 22:16] · скачан: 1 181 раз
Статус: √ проверено
Размер: 3.9 GB
Как cкачать? Как скачать Сваты 4 через торрент | qTorrent

% Раздел Тема Автор DL S | L
Наши сериалы [ 8.85 GB ] Сваты / [2010 SATRip] Чупачупсик Скачать
1 | 0
Наши фильмы (DVD фильмы) [ 30.96 GB ] Сваты 5 [2011 DVD9 х 4] shuller Скачать
1 | 0
Наши сериалы [ 30.17 GB ] Сваты 4 [2010 DVD9 лицензия] demon.. Скачать
1 | 0

28-11-2019 20:33  

Отключить всю рекламу на сайте

19-09-2011 18:52 Сваты 4 Скачать торрент  

отличный фильм смотрел неоднократноpb.wtf



20-10-2011 03:34 Сваты 4 Скачать торрент  

Спасиба!!!!огромное))pb.wtf



17-12-2011 06:22 Сваты 4 Скачать торрент  

БОЛЬШОЕ СПАСИБО!!!pb.wtf



12-04-2013 17:04 Сваты 4 Скачать торрент  

спасибо !!!!!!!!!!!!!!!!!!!!!!pb.wtf



    Дорогой пользователь! Огромная просьба, поблагодарите релизера, оцените раздачу и оставьте свои комментарий, если Вы скачали Сваты 4 через торрент бесплатно! Внесите свою лепту в развитие PiratBit!
    Комментировать посты могут только пользователи прошедшие не сложную регистрацию
    Показать сообщения:    

    Сваты 4 через торрент
    Скачать бесплатно Сваты 4
    Сваты 4 скачать торрент
    Сваты 4 смотреть онлайн
    Cкачать фильм Сваты 4 бесплатно
    Сваты 4 скачать торрент в хорошем качестве
    Сваты 4 смотреть онлайн бесплатно в хорошем качестве


    Вы не можете начинать темы
    Вы не можете отвечать на сообщения
    Вы не можете редактировать свои сообщения
    Вы не можете удалять свои сообщения
    Вы не можете голосовать в опросах
    Вы не можете прикреплять файлы к сообщениям
    Вы можете скачивать файлы