Ссылка на приватное зеркало нашего сайта всего за 1$. Внимание количество ограничено!!!

2 сезон

iTunes

1 сезон

1

2 сезон

2 сезон

iTunes

1 сезон

RePack

30

Ultimate

ВАЖНО

ИГРА 18+

pack

RePack

MK11
pack

Забери бонус

RePack

jed

!!Акция!!

Alien_Rage

RePack

fifa19

RePack

Assassins Creed: Odyssey

RePack

NEED FOR SPEED™ PAYBACK

4 сезон

9 сезон

Бесстыжие 9 сезон

Все сериалы

все сериалы на PB.wtf

RePack

FAR CRY 5
  

Бездна / The Deep / (Cезон 1) Серия 1-5 (5) [минисериал] (Джим О’Хенлон, Колм МакКарти) [2010 г., триллер, драма, BDRip (720p)] NovaFiLM.TV pb.wtf

Бездна через торрент pb.wtf

Размер: 13.29 GB | Добавлен: 9 лет 2 мес. назад | Торрент скачан:30 раз
Скачать  

17-09-2011 22:41 Бездна Скачать торрент  

Бездна / The Deep
(Cезон 1) Серия 1-5 (5)
Год выпуска: 2010
Страна: Англия
Жанр: триллер, драма
Продолжительность: 00:57:08
Перевод: Профессиональный (двухголосый)закадровый (NovaFiLM.TV)

Режиссер: Джим О’Хенлон, Колм МакКарти
Продюссер: Робби Сэндисон
Сценарий: Саймон Дональд

Премьера в мире: 3 августа 2010

IMDb: 5.40 (547)
Кинопоиск: 6.609 45

В ролях
: Джеймс Несбитт, Орла Брэйди, Горан Вишнич, Минни Драйвер, Дэн Ли Найджел, Уитми Саша, Дхаван Молли, Джонс Тобиаш, Мензес Вера, Филатова



Описание: Группа океанографов на подлодке «Орфей» ищет редкие микроорганизмы в Северном Ледовитом океане, возле хребта Ломоносова. Предположительно, микроорганизмы могут стать новым источником биологического топлива. Но подлодка внезапно терпит крушение и ученые оказываются взаперти под толщей воды, на глубине в тысячи метров.

Качество: BDRip (720p)
Формат: MKV
Видео кодек: H.26x
Аудио кодек: AC3
Видео: 1280×720 (1.78:1), 25 fps, 4903 kbps avg, 0,24 bit/pixel
Аудио 1: 48 kHz, Dolby Digital 2.0 @ 448 Kbps AC-3
Аудио 2: 48 KHz, Dolby Digital 2.0 @ 448 Kbps AC-3

Релиз от:

Над релизом работали:
Перевод: Марина З.
Подготовка видео: vadimdexter
Монтаж и работа со звуком: Alucard
E:\ЗАГРУЗКА\Бездна 1 сезон\the.deep.s01e05.bdrip.720p.rus.eng.novafilm.tv.mkv
General
Complete name : E:\ЗАГРУЗКА\Бездна 1 сезон\the.deep.s01e05.bdrip.720p.rus.eng.novafilm.tv.mkv
Format : Matroska
File size : 3.83 GiB
Duration : 57mn 40s
Overall bit rate : 9 511 Kbps
Encoded date : UTC 2011-09-17 16:05:46
Writing application : mkvmerge v4.0.0 ('The Stars were mine') сборка от Jun 6 2010 16:18:42
Writing library : libebml v1.0.0 + libmatroska v1.0.0
Cover : Yes
Video #1
ID : 1
Format : AVC
Format/Info : Advanced Video Codec
Format profile : High@L4.1
Format settings, CABAC : Yes
Format settings, ReFrames : 9 frames
Muxing mode : Container profile=Unknown@4.1
Codec ID : V_MPEG4/ISO/AVC
Duration : 57mn 40s
Bit rate : 8 426 Kbps
Width : 1 280 pixels
Height : 720 pixels
Display aspect ratio : 16:9
Frame rate : 25.000 fps
Resolution : 8 bits
Colorimetry : 4:2:0
Scan type : Progressive
Bits/(Pixel*Frame) : 0.366
Stream size : 3.39 GiB (89%)
Title : The Deep - Season 1, Episode 5
Writing library : x264 core 105 r1724 b02df7b
Encoding settings : cabac=1 / ref=9 / deblock=1:-3:-3 / analyse=0x3:0x133 / me=umh / subme=10 / psy=1 / psy_rd=1.00:0.25 / mixed_ref=1 / me_range=24 / chroma_me=1 / trellis=2 / 8x8dct=1 / cqm=0 / deadzone=6,6 / fast_pskip=0 / chroma_qp_offset=-4 / threads=12 / sliced_threads=0 / nr=10 / decimate=0 / interlaced=0 / constrained_intra=0 / bframes=6 / b_pyramid=2 / b_adapt=2 / b_bias=0 / direct=3 / weightb=1 / open_gop=0 / weightp=2 / keyint=250 / keyint_min=25 / scenecut=40 / intra_refresh=0 / rc_lookahead=60 / rc=crf / mbtree=1 / crf=20.0 / qcomp=0.80 / qpmin=10 / qpmax=51 / qpstep=4 / vbv_maxrate=40000 / vbv_bufsize=30000 / crf_max=0.0 / ip_ratio=1.10 / aq=1:1.00 / nal_hrd=none
Audio #2
ID : 2
Format : AC-3
Format/Info : Audio Coding 3
Codec ID : A_AC3
Duration : 57mn 40s
Bit rate mode : Constant
Bit rate : 448 Kbps
Channel(s) : 2 channels
Channel positions : L R
Sampling rate : 48.0 KHz
Stream size : 185 MiB (5%)
Title : Dolby Digital 2.0 @ 448 kbps
Language : Russian
Audio #3
ID : 3
Format : AC-3
Format/Info : Audio Coding 3
Codec ID : A_AC3
Duration : 57mn 40s
Bit rate mode : Constant
Bit rate : 448 Kbps
Channel(s) : 2 channels
Channel positions : L R
Sampling rate : 48.0 KHz
Stream size : 185 MiB (5%)
Title : Dolby Digital 2.0 @ 448 kbps
Text #4
ID : 4
Format : ASS
Codec ID : S_TEXT/ASS
Codec ID/Info : Advanced Sub Station Alpha
Title : Styled
Text #5
ID : 5
Format : UTF-8
Codec ID : S_TEXT/UTF8
Codec ID/Info : UTF-8 Plain Text
Title : Unstyled
1. To the Furthest Place / На самом дне
2. Into the Belly of the Beast / Внутри монстра
3. Ghosts of the Deep / Призраки Бездны
4. Everything Put Together Falls Apart / Всё единое в итоге ждет распад
5. The Last Breath / На Последнем Дыхании
pb.wtf



Скачать Бездна через торрент http://i31.fastpic.ru/big/2011/0918/be/16938fe069c28fb3ec0890cb4cb2c7be.jpg Скачать фильм Бездна через торрент бесплантно в хорошем качестве Описание: Группа океанографов на подлодке «Орфей» ищет редкие микроорганизмы в Северном Ледовитом океане, возле хребта Ломоносова. ... 4.8 10 6
Info! Золотая раздача, скачанное не засчитывается.
Торрент: Зарегистрирован [2011-09-17 22:41] · скачан: 30 раз
Статус: √ проверено
Размер: 13.29 GB
Как cкачать? Как скачать Бездна через торрент | qTorrent



Последний раз редактировалось: lyokaa (2011-09-18 06:56), всего редактировалось 3 раз(а)

28-11-2019 20:33  

Отключить всю рекламу на сайте

17-09-2011 23:22 Бездна Скачать торрент  

Так вроде 5 серий в 1 сезоне.pb.wtf



18-03-2012 08:52 Бездна Скачать торрент  

Где же раздача?pb.wtf



    Дорогой пользователь! Огромная просьба, поблагодарите релизера, оцените раздачу и оставьте свои комментарий, если Вы скачали Бездна через торрент бесплатно! Внесите свою лепту в развитие PiratBit!
    Комментировать посты могут только пользователи прошедшие не сложную регистрацию
    Показать сообщения:    

    Бездна через торрент
    Скачать бесплатно Бездна
    Бездна скачать торрент
    Бездна смотреть онлайн
    Cкачать фильм Бездна бесплатно
    Бездна скачать торрент в хорошем качестве
    Бездна смотреть онлайн бесплатно в хорошем качестве


    Вы не можете начинать темы
    Вы не можете отвечать на сообщения
    Вы не можете редактировать свои сообщения
    Вы не можете удалять свои сообщения
    Вы не можете голосовать в опросах
    Вы не можете прикреплять файлы к сообщениям
    Вы можете скачивать файлы