Ссылка на приватное зеркало нашего сайта всего за 1$. Внимание количество ограничено!!!

2 сезон

iTunes

1 сезон

1

iTunes

iTunes

iTunes

1 сезон

RePack

30

ИГРА 18+

pack

ВАЖНО

!!Акция!!

Alien_RageХит недели

RePack

MK11
pack

Забери бонус

RePack

jed

!!Акция!!

Alien_Rage

RePack

fifa19

RePack

Assassins Creed: Odyssey

RePack

NEED FOR SPEED™ PAYBACK

4 сезон

9 сезон

Бесстыжие 9 сезон

Все сериалы

все сериалы на PB.wtf

RePack

FAR CRY 5
  

Агент Джонни Инглиш / Johnny English (Питер Хауит / Peter Howitt) [2003, боевик, комедия, приключения, BDRip 720p] pb.wtf

Агент Джонни Инглиш через торрент pb.wtf

Размер: 4.6 GB | Добавлен: 9 лет 1 мес. назад | Торрент скачан:308 раз
Скачать  

18-09-2011 09:49 Агент Джонни Инглиш Скачать торрент  



Год выпуска: 2003
Страна:
Жанр: боевик, комедия, приключения
Продолжительность: 01:27:25
Перевод: Профессиональный (Полное дублирование) + Английский оригинал


Режиссер: Питер Хауит / Peter Howitt
Продюссер: Тим Беван, Эрик Феллнер, Марк Хаффам
Сценарий: Нил Пёрвис, Роберт Уэйд, Уильям Дэвис


бюджет: $40 000 000
Премьера в мире: 6 апреля 2003


В ролях: Роуэн Эткинсон, Натали Имбрулья, Бен Миллер, Джон Малкович, Тим Пиготт-Смит, Кевин МакНэлли, Оливер Форд Дэвис, Дуглас МакФерран, Таша ди Вашконселуш, Грег Уайз



История самого некомпетентного и недалекого Британского дипломата, которого только можно представить, которого ошибочно принимают за самого знаменитого и опасного шпиона Великобритании, Джонни Инглиша. Из-за этой путаницы герой оказывается вовлеченным в смертельную схватку с авторами очередного дьявольского плана.




Качество: BDRip 720p
Формат:
Видео кодек:
Аудио кодек: AC3, DTS
Видео: 1280x696, 23.976fps, x264, 5646 kbps
Аудио #1: Русский AC-3 5.1, 48 kHz, 16 bits, 384 kbps
Аудио #2: Английский DTS 5.1, 48 kHz, 24 bits, 1510 kbps
*Рабочее название картины - A Touch Of Weevil («Прикосновение долгоносика»).
*Основанный на сюжете известного британского телесериала, фильм может стать первой частью полнометражного сериала о похождениях Джонни-англичанина и некой альтернативной эпопеи об Остине Пауэрсе.
General
Unique ID : 211932739504672616126032771235746160919 (0x9F70C2CBB4BC5774AE7D3B4E1DB82117)
Complete name : Johnny.English.2003.D.Rus.Eng.BDRip.720p.x264.mkv
Format : Matroska
Format version : Version 2
File size : 4.60 GiB
Duration : 1h 27mn
Overall bit rate : 7 537 Kbps
Encoded date : UTC 2011-09-18 04:42:01
Writing application : mkvmerge v4.9.1 ('Ich will') сборка от Jul 11 2011 23:53:15
Writing library : libebml v1.2.1 + libmatroska v1.1.1

Video
ID : 1
Format : AVC
Format/Info : Advanced Video Codec
Format profile : High@L4.1
Format settings, CABAC : Yes
Format settings, ReFrames : 5 frames
Codec ID : V_MPEG4/ISO/AVC
Duration : 1h 27mn
Bit rate : 5 646 Kbps
Width : 1 280 pixels
Height : 696 pixels
Display aspect ratio : 16:9
Frame rate : 23.976 fps
Color space : YUV
Chroma subsampling : 4:2:0
Bit depth : 8 bits
Scan type : Progressive
Bits/(Pixel*Frame) : 0.264
Stream size : 3.35 GiB (73%)
Writing library : x264 core 116 r2074 2641b9e
Encoding settings : cabac=1 / ref=5 / deblock=1:0:0 / analyse=0x3:0x113 / me=umh / subme=8 / psy=1 / psy_rd=1.00:0.00 / mixed_ref=1 / me_range=16 / chroma_me=1 / trellis=1 / 8x8dct=1 / cqm=0 / deadzone=21,11 / fast_pskip=1 / chroma_qp_offset=-2 / threads=12 / sliced_threads=0 / nr=0 / decimate=1 / interlaced=0 / bluray_compat=0 / constrained_intra=0 / bframes=3 / b_pyramid=2 / b_adapt=2 / b_bias=0 / direct=3 / weightb=1 / open_gop=0 / weightp=2 / keyint=240 / keyint_min=24 / scenecut=40 / intra_refresh=0 / rc_lookahead=50 / rc=2pass / mbtree=1 / bitrate=5646 / ratetol=1.0 / qcomp=0.60 / qpmin=0 / qpmax=69 / qpstep=4 / cplxblur=20.0 / qblur=0.5 / ip_ratio=1.40 / aq=1:1.00
Language : English

Audio #1
ID : 2
Format : AC-3
Format/Info : Audio Coding 3
Mode extension : CM (complete main)
Codec ID : A_AC3
Duration : 1h 27mn
Bit rate mode : Constant
Bit rate : 384 Kbps
Channel(s) : 6 channels
Channel positions : Front: L C R, Side: L R, LFE
Sampling rate : 48.0 KHz
Bit depth : 16 bits
Compression mode : Lossy
Stream size : 240 MiB (5%)
Language : Russian

Audio #2
ID : 3
Format : DTS
Format/Info : Digital Theater Systems
Codec ID : A_DTS
Duration : 1h 27mn
Bit rate mode : Constant
Bit rate : 1 510 Kbps
Channel(s) : 6 channels
Channel positions : Front: L C R, Side: L R, LFE
Sampling rate : 48.0 KHz
Bit depth : 24 bits
Compression mode : Lossy
Stream size : 944 MiB (20%)
Language : English

Text #1
ID : 4
Format : UTF-8
Codec ID : S_TEXT/UTF8
Codec ID/Info : UTF-8 Plain Text
Language : Russian

Text #2
ID : 5
Format : UTF-8
Codec ID : S_TEXT/UTF8
Codec ID/Info : UTF-8 Plain Text
Language : English

Menu
00:00:00.000 : en:00:00:00.000
00:03:55.318 : en:00:03:55.318
00:08:12.867 : en:00:08:12.867
00:14:05.094 : en:00:14:05.094
00:17:51.404 : en:00:17:51.404
00:22:31.600 : en:00:22:31.600
00:26:45.729 : en:00:26:45.729
00:33:33.678 : en:00:33:33.678
00:39:12.433 : en:00:39:12.433
00:46:41.674 : en:00:46:41.674
00:49:05.734 : en:00:49:05.734
00:54:09.913 : en:00:54:09.913
00:57:37.746 : en:00:57:37.746
01:02:20.320 : en:01:02:20.320
01:04:59.020 : en:01:04:59.020
01:08:55.298 : en:01:08:55.298
01:13:08.384 : en:01:13:08.384
01:18:03.637 : en:01:18:03.637
01:21:19.708 : en:01:21:19.708
01:22:56.305 : en:01:22:56.305
скриншот  скриншот  скриншот  скриншот  pb.wtf



Скачать Агент Джонни Инглиш через торрент http://i29.fastpic.ru/big/2011/0918/52/e119f754150741d8f7f703c0f0f92a52.png Скачать фильм Агент Джонни Инглиш через торрент бесплантно в хорошем качестве В ролях: Роуэн Эткинсон, Натали Имбрулья, Бен Миллер, Джон Малкович, Тим Пиготт-Смит, Кевин МакНэлли, Оливер Форд Дэвис, Дуглас МакФерран, ... 9.9 10 9
Info! Золотая раздача, скачанное не засчитывается.
Торрент: Зарегистрирован [2011-09-18 09:49] · скачан: 308 раз
Статус: √ проверено
Размер: 4.6 GB
Как cкачать? Как скачать Агент Джонни Инглиш через торрент | qTorrent

% Раздел Тема Автор DL S | L
Ultra HD (UHD: 2K, 4K, 8K) — видео сверхвысокой чёткости [ 51.15 GB ] Агент Джонни Инглиш 3.0 / Johnny English Strikes Again [2018 UHD Blu-Ray 2160p] DUB [] bober100 Скачать
1 | 0
Ultra HD (UHD: 2K, 4K, 8K) — видео сверхвысокой чёткости [ 20.03 GB ] Агент Джонни Инглиш 3.0 / Johnny English Strikes Again [2018 UHD BDRip 2160p] [SDR] DUB [] sheker187 Скачать
1 | 0
Фильмы [HD 720p, 1080p] (Хороший звук DUB, MVO) [ 7.98 GB ] Агент Джонни Инглиш 3.0 / Johnny English Strikes Again [2018 BDRip 1080p] DUB [] bober100 Скачать
1 | 0
Фильмы 2018 [DVDrip, WEB-DLRip, HDrip] (DUB, MVO) [ 1.46 GB ] Агент Джонни Инглиш 3.0 / Johnny English Strikes Again [2018 BDRip] - [] Twi7ter Скачать
2 | 0
T Фильмы [HD 720p, 1080p] (Хороший звук DUB, MVO) [ 4.6 GB ] Агент Джонни Инглиш 3.0 / Johnny English Strikes Again [2018 BDRip 720p] DUB +MVO [HDrezka Studio] bober100 Скачать
1 | 0
Фильмы [HD 720p, 1080p] (Хороший звук DUB, MVO) [ 4.77 GB ] Агент Джонни Инглиш 3.0 / Johnny English Strikes Again [2018 BDRip 720p] DUB [] bober100 Скачать
2 | 0
Ultra HD (UHD: 2K, 4K, 8K) — видео сверхвысокой чёткости [ 10.07 GB ] Агент Джонни Инглиш 3.0 / Johnny English Strikes Again [2018 UHD BDRip 2160p] DUB [] sheker187 Скачать
1 | 0

28-11-2019 20:33  

Отключить всю рекламу на сайте

19-09-2011 15:07 Агент Джонни Инглиш Скачать торрент  

Спасибо автору раздачи!!!! pb.wtf



    Дорогой пользователь! Огромная просьба, поблагодарите релизера, оцените раздачу и оставьте свои комментарий, если Вы скачали Агент Джонни Инглиш через торрент бесплатно! Внесите свою лепту в развитие PiratBit!
    Комментировать посты могут только пользователи прошедшие не сложную регистрацию
    Показать сообщения:    

    Агент Джонни Инглиш через торрент
    Скачать бесплатно Агент Джонни Инглиш
    Агент Джонни Инглиш скачать торрент
    Агент Джонни Инглиш смотреть онлайн
    Cкачать фильм Агент Джонни Инглиш бесплатно
    Агент Джонни Инглиш скачать торрент в хорошем качестве
    Агент Джонни Инглиш смотреть онлайн бесплатно в хорошем качестве


    Вы не можете начинать темы
    Вы не можете отвечать на сообщения
    Вы не можете редактировать свои сообщения
    Вы не можете удалять свои сообщения
    Вы не можете голосовать в опросах
    Вы не можете прикреплять файлы к сообщениям
    Вы можете скачивать файлы