1 сезон

3 сезон

iTunes

1

iTunes

MVO

iTunes

13

1 сезон

RePack

30

Deluxe

pack

Лицензия

ВАЖНО

ИГРА 18+

pack

RePack

MK11

RePack

jed

RePack

fifa19

RePack

RDR2

RePack

NEED FOR SPEED™ PAYBACK

4 сезон

9 сезон

Бесстыжие 9 сезон

Все сериалы

все сериалы на PB.wtf

RePack

FAR CRY 5

Anonymous, добрый день, мы катастрофически не успеваем собрать деньги на оплату серверов, помогите нам пожалуйста 5,10,15р., для нас важна любая помощь . В качестве благодарности мы отключим Вам всю рекламу на сайте (укажите свой ник в строку Ваше имя)!

×
  
Magnet ссылка

Артур. Идеальный миллионер / Arthur (Джейсон Уайнер / Jason Winer) [2011, комедия, DVD9] R5 «CP-Digital» pb.wtf

Артур. Идеальный миллионер через торрент pb.wtf

Размер: 4.64 GB | Добавлен: 9 лет 10 мес. назад | Торрент скачан:111 раз
Скачать  

20-09-2011 19:59 Артур. Идеальный миллионер Скачать торрент  


Артур. Идеальный миллионер / Arthur
«No Work. All Play.»
Страна: США
Студия: BenderSpink, Langley Park Productions, Morra, Brezner, Steinberg and Tenenbaum Entertainment (MBST), Warner Bros. Pictures
Жанр: комедия
Год выпуска: 2011
Мировая премьера: 8 апреля 2011
Дата выхода DVD: 15 сентября 2011, «CP-Digital»
Продолжительность: 01:45:27
Перевод: Профессиональный (многоголосый закадровый) [Лицензия]
Cубтитры: русские, английские, украинские
Оригинальная аудиодорожка: английский
Режиссер: Джейсон Уайнер / Jason Winer
В ролях: Расселл Брэнд, Хелен Миррен, Грета Гервиг, Дженнифер Гарнер, Джеральдин Джеймс, Луис Гузман, Ник Нолти, Кристина Калф, Мерфи Гайер, Хосе Рамон Росарио
Описание: Артур Бэч, попадая в жизненные передряги, всегда полагался на две вещи: свое огромное состояние и здравомыслие собственной няньки Хобсон. Но теперь ему придется сделать выбор между браком по расчету, который еще более укрепит его финансовое положение, и неопределенным будущим с единственным, что нельзя купить за деньги, — прекрасной Наоми, любовью всей его жизни. Учитывая воодушевленность Наоми и нестандартную помощь Хобсон, Артур бросается в омут с головой в наиболее рискованное приключение всей своей жизни и наконец узнаёт, что значит быть настоящим мужчиной.
Бонусы: Удаленные сцены

Релиз группы:
Качество: DVD9 R5
Формат: DVD-Video
Видео кодек: MPEG2
Аудио кодек: AC3
Видео: PAL 16:9 (720x576(0.514)) MPEG Video, 25,000 кадр/сек, 5330 Кбит/сек
Аудио #1: English (Dolby AC3, 6 ch) 384 Кбит/сек, 48,0 КГц
Аудио #2: Russian (Dolby AC3, 2 ch) 192 Кбит/сек, 48,0 КГц



Title: F
Size: 4.64 Gb ( 4 869 608 KBytes ) - DVD-9
Enabled regions: 1, 2, 3, 4, 5, 6, 7, 8

VTS_01 :
Play Length: 01:45:27+00:09:57
Video: PAL 16:9 (720x576) VBR, Auto Pan&Scan
Audio:
English (Dolby AC3, 6 ch)
Russian (Dolby AC3, 2 ch)
English (Dolby AC3, 2 ch)
Subtitles:
English
Russian
Ukrainian
Russian

VTS_02 :
Play Length: 00:00:10+00:00:12
Video: PAL 16:9 (720x576) VBR, Auto Pan&Scan
Audio:
Not specified (Dolby AC3, 6 ch)
Subtitles:
Not specified
Общее
Полное имя : G:\Новинки 2011\Arthur.2011.DVD9\VIDEO_TS\VTS_01_1.VOB
Формат : MPEG-PS
Размер файла : 1024 Мбайт
Продолжительность : 23 м.
Общий поток : 6026 Кбит/сек

Видео
Идентификатор : 224 (0xE0)
Формат : MPEG Video
Версия формата : Version 2
Профиль формата : Main@Main
Параметр BVOP формата : Да
Параметр матрицы формата : Выборочная
Продолжительность : 23 м.
Вид битрейта : Переменный
Битрейт : 5330 Кбит/сек
Максимальный битрейт : 9800 Кбит/сек
Ширина : 720 пикселей
Высота : 576 пикселей
Соотношение сторон : 16:9
Частота кадров : 25,000 кадров/сек
Стандарт вещания : PAL
Цветовое пространство : YUV
Субдискретизация насыщенности : 4:2:0
Битовая глубина : 8 бит
Метод сжатия : С потерями
Бит/(Пиксели*Кадры) : 0.514
Размер потока : 906 Мбайт (88%)

Аудио #1
Идентификатор : 189 (0xBD)-128 (0x80)
Формат : AC-3
Формат/Информация : Audio Coding 3
Расширение режима : CM (complete main)
Режим смешивания : DVD-Video
Продолжительность : 23 м.
Вид битрейта : Постоянный
Битрейт : 384 Кбит/сек
Каналы : 6 каналов
Расположение каналов : Front: L C R, Side: L R, LFE
Частота : 48,0 КГц
Битовая глубина : 16 бит
Метод сжатия : С потерями
Размер потока : 65,2 Мбайт (6%)

Аудио #2
Идентификатор : 189 (0xBD)-129 (0x81)
Формат : AC-3
Формат/Информация : Audio Coding 3
Расширение режима : CM (complete main)
Режим смешивания : DVD-Video
Продолжительность : 23 м.
Вид битрейта : Постоянный
Битрейт : 192 Кбит/сек
Каналы : 2 канала
Расположение каналов : Front: L R
Частота : 48,0 КГц
Битовая глубина : 16 бит
Метод сжатия : С потерями
Размер потока : 32,6 Мбайт (3%)










pb.wtf



Скачать Артур. Идеальный миллионер через торрент http://i1.imageban.ru/out/2011/09/20/bc6921f12fc5698a16aa4505cc83ab71.jpg Скачать фильм Артур. Идеальный миллионер через торрент бесплантно в хорошем качестве Описание: Артур Бэч, попадая в жизненные передряги, всегда полагался на две вещи: свое огромное состояние и здравомыслие собственной няньки ... 5 10 6
Info! Золотая раздача, скачанное не засчитывается.
Торрент: Зарегистрирован [2011-09-20 19:59] · скачан: 111 раз
Статус: √ проверено
Размер: 4.64 GB
Как cкачать? Как скачать Артур. Идеальный миллионер через торрент | UTorrent

28-11-2019 20:33  

Отключить всю рекламу на сайте

02-11-2011 15:11 Артур. Идеальный миллионер Скачать торрент  

СПАСИБО :good: :good:pb.wtf



02-11-2011 16:13 Артур. Идеальный миллионер Скачать торрент  

в дубляже смотрелся бы ещё кручеpb.wtf



    Дорогой пользователь! Огромная просьба, поблагодарите релизера, оцените раздачу и оставьте свои комментарий, если Вы скачали Артур. Идеальный миллионер через торрент бесплатно! Внесите свою лепту в развитие PiratBit!
    Комментировать посты могут только пользователи прошедшие не сложную регистрацию
    Показать сообщения:    

    Артур. Идеальный миллионер через торрент
    Скачать бесплатно Артур. Идеальный миллионер
    Артур. Идеальный миллионер скачать торрент
    Артур. Идеальный миллионер смотреть онлайн
    Cкачать фильм Артур. Идеальный миллионер бесплатно
    Артур. Идеальный миллионер скачать торрент в хорошем качестве
    Артур. Идеальный миллионер смотреть онлайн бесплатно в хорошем качестве


    Вы не можете начинать темы
    Вы не можете отвечать на сообщения
    Вы не можете редактировать свои сообщения
    Вы не можете удалять свои сообщения
    Вы не можете голосовать в опросах
    Вы не можете прикреплять файлы к сообщениям
    Вы можете скачивать файлы