1 сезон

3 сезон

iTunes

1

iTunes

MVO

iTunes

13

1 сезон

RePack

30

Deluxe

pack

Лицензия

ВАЖНО

ИГРА 18+

pack

RePack

MK11

RePack

jed

RePack

fifa19

RePack

RDR2

RePack

NEED FOR SPEED™ PAYBACK

4 сезон

9 сезон

Бесстыжие 9 сезон

Все сериалы

все сериалы на PB.wtf

RePack

FAR CRY 5

Anonymous, доброй ночи, мы катастрофически не успеваем собрать деньги на оплату серверов, помогите нам пожалуйста 5,10,15р., для нас важна любая помощь . В качестве благодарности мы отключим Вам всю рекламу на сайте (укажите свой ник в строку Ваше имя)!

×
  
Magnet ссылка

Вой Банши / Scream of the Banshee (Стивен С. Миллер / Steven C. Miller) [2011, ужасы, DVD5] R5 «Top Film Distribution» pb.wtf

Вой Банши через торрент pb.wtf

Размер: 3.95 GB | Добавлен: 9 лет 10 мес. назад | Торрент скачан:70 раз
Скачать  

23-09-2011 17:25 Вой Банши Скачать торрент  


Вой Банши / Scream of the Banshee
«Она вернулась спустя тысячи лет.»
Страна: США
Студия: AfterDark Films
Жанр: ужасы
Год выпуска: 2011
Мировая премьера: 26 марта 2011
Дата выхода DVD: 21 июля 2011, «Top Film Distribution»
Продолжительность: 01:26:24
Перевод: Профессиональный (многоголосый закадровый) [Лицензия]
Cубтитры: украинские
Режиссер: Стивен С. Миллер / Steven C. Miller
В ролях: Моника Акоста, Эрик Ф. Адамс, Марселль Баэр, Эрик Браун, Лиэнн Кохрэн, Томас С. Дэниэл, Лэнс Хенриксен, Гаррет Хайнс
Описание: На адрес калифорнийского университета приходит анонимная посылка с ценной вещицей — рыцарской перчаткой XII века. Пристраивая её на склад, студенты случайно обнаруживают ещё один артефакт тех времён — старый железный ящик, закрытый на хитроумный замок. Обнаружив, что именно таинственная перчатка подходит в качестве ключа, ребята вскрывают ящик и обнаруживают в нём неплохо сохранившуюся голову какого-то зубастого существа. Давным-давно кто-то скрыл от людей опасную тайну, но человеческое любопытство вновь выпускает зло на свободу…
Бонусы: нет

Релиз группы:
Качество: DVD5 R5
Формат: DVD-Video
Видео кодек: MPEG2
Аудио кодек: AC3
Видео: PAL 16:9 (720x576(0.577)) MPEG Video, 25,000 кадр/сек, 5985 Кбит/сек
Аудио: Russian (Dolby AC3, 6 ch) 384 Кбит/сек, 48,0 КГц



Title:
Size: 3.95 Gb ( 4 144 790 KBytes ) - DVD-5
Enabled regions: 1, 2, 3, 4, 5, 6, 7, 8

VTS_01 :
Play Length: 00:00:08
Video: PAL 4:3 (720x576) VBR

VTS_02 :
Play Length: 00:00:13
Video: PAL 16:9 (720x576) VBR, Auto Pan&Scan

VTS_03 :
Play Length: 01:26:24
Video: PAL 16:9 (720x576) VBR, Auto Pan&Scan
Audio:
Russian (Dolby AC3, 6 ch)
Subtitles:
Ukrainian

VTS_04 :
Play Length: 00:00:16
Video: PAL 16:9 (720x576) VBR, Auto Pan&Scan
Audio:
English (Dolby AC3, 2 ch)

VTS_05 :
Play Length: 00:00:15
Video: PAL 4:3 (720x576) VBR
Audio:
English (Dolby AC3, 2 ch)
Общее
Полное имя : G:\Новинки 2011\Voj.banshi.2011.DVD5\VIDEO_TS\VTS_03_1.VOB
Формат : MPEG-PS
Размер файла : 1024 Мбайт
Продолжительность : 22 м.
Общий поток : 6498 Кбит/сек

Видео
Идентификатор : 224 (0xE0)
Формат : MPEG Video
Версия формата : Version 2
Профиль формата : Main@Main
Параметр BVOP формата : Да
Параметр матрицы формата : По умолчанию
Параметр GOP формата : M=3, N=15
Продолжительность : 22 м.
Вид битрейта : Переменный
Битрейт : 5985 Кбит/сек
Максимальный битрейт : 8000 Кбит/сек
Ширина : 720 пикселей
Высота : 576 пикселей
Соотношение сторон : 16:9
Частота кадров : 25,000 кадров/сек
Стандарт вещания : PAL
Цветовое пространство : YUV
Субдискретизация насыщенности : 4:2:0
Битовая глубина : 8 бит
Тип развёртки : Прогрессивная
Метод сжатия : С потерями
Бит/(Пиксели*Кадры) : 0.577
Размер потока : 943 Мбайт (92%)

Аудио
Идентификатор : 189 (0xBD)-128 (0x80)
Формат : AC-3
Формат/Информация : Audio Coding 3
Расширение режима : CM (complete main)
Режим смешивания : DVD-Video
Продолжительность : 22 м.
Вид битрейта : Постоянный
Битрейт : 384 Кбит/сек
Каналы : 6 каналов
Расположение каналов : Front: L C R, Side: L R, LFE
Частота : 48,0 КГц
Битовая глубина : 16 бит
Метод сжатия : С потерями
Задержка видео : -80 мс.
Размер потока : 60,5 Мбайт (6%)










pb.wtf



Скачать Вой Банши через торрент http://i1.imageban.ru/out/2011/09/23/bbfc857abf1605957b80945bc794cc96.jpg Скачать фильм Вой Банши через торрент бесплантно в хорошем качестве Описание: На адрес калифорнийского университета приходит анонимная посылка с ценной вещицей — рыцарской перчаткой XII века. Пристраивая её ... 3.8 10 4
Info! Золотая раздача, скачанное не засчитывается.
Торрент: Зарегистрирован [2011-09-23 17:25] · скачан: 70 раз
Статус: √ проверено
Размер: 3.95 GB
Как cкачать? Как скачать Вой Банши через торрент | UTorrent

28-11-2019 20:33  

Отключить всю рекламу на сайте

23-09-2011 17:52 Вой Банши Скачать торрент  

спасибо люблю ужастикиpb.wtf



    Дорогой пользователь! Огромная просьба, поблагодарите релизера, оцените раздачу и оставьте свои комментарий, если Вы скачали Вой Банши через торрент бесплатно! Внесите свою лепту в развитие PiratBit!
    Комментировать посты могут только пользователи прошедшие не сложную регистрацию
    Показать сообщения:    

    Вой Банши через торрент
    Скачать бесплатно Вой Банши
    Вой Банши скачать торрент
    Вой Банши смотреть онлайн
    Cкачать фильм Вой Банши бесплатно
    Вой Банши скачать торрент в хорошем качестве
    Вой Банши смотреть онлайн бесплатно в хорошем качестве


    Вы не можете начинать темы
    Вы не можете отвечать на сообщения
    Вы не можете редактировать свои сообщения
    Вы не можете удалять свои сообщения
    Вы не можете голосовать в опросах
    Вы не можете прикреплять файлы к сообщениям
    Вы можете скачивать файлы