1 сезон

3 сезон

iTunes

1

Line

MVO

iTunes

13

1 сезон

RePack

30

Deluxe

pack

Лицензия

ВАЖНО

ИГРА 18+

pack

RePack

MK11

RePack

jed

RePack

fifa19

RePack

RDR2

RePack

NEED FOR SPEED™ PAYBACK

4 сезон

9 сезон

Бесстыжие 9 сезон

Все сериалы

все сериалы на PB.wtf

RePack

FAR CRY 5

Anonymous, доброй ночи, мы катастрофически не успеваем собрать деньги на оплату серверов, помогите нам пожалуйста 5,10,15р., для нас важна любая помощь . В качестве благодарности мы отключим Вам всю рекламу на сайте (укажите свой ник в строку Ваше имя)!

×
  
Magnet ссылка

Кровавое братство / True Justice (Вейн Роуз, Киони Ваксман, Лауро Чартрэнд / Wayne Rose, Kioni Waxman, Laura Chartrend) [2011, боевик, триллер, драма, DVD5] R5 «New Dream media» pb.wtf

Кровавое братство через торрент pb.wtf

Размер: 3.85 GB | Добавлен: 9 лет 10 мес. назад | Торрент скачан:43 раза
Скачать  

23-09-2011 22:08 Кровавое братство Скачать торрент  


Кровавое братство / True Justice
«Some lines should never be crossed.»
Страна: США, Канада
Студия: True Justice 1 Productions, Voltage Pictures
Жанр: боевик, триллер, драма
Год выпуска: 2011
Дата выхода DVD: 22 сентября 2011, «New Dream media»
Продолжительность: 01:26:05
Перевод: Профессиональный (многоголосый закадровый) [Лицензия]
Cубтитры: нет
Оригинальная аудиодорожка: английский
Режиссер: Вейн Роуз, Киони Ваксман, Лауро Чартрэнд / Wayne Rose, Kioni Waxman, Laura Chartrend

В ролях: Стивен Сигал, Мегано Ори, Уильям "Бигслипс" Стюарт, Сара Линд, Эдриан Хью, Элизабет Тай, Кайл Кэсси, Дэвид Ричмонд-Пэк, Алекс Маллари мл., Экстасиа Сандерс, Дарси Лори, Байрон Манн...
Описание: Кэйн и его команда борются с новой волной криминала - в Сиэтле появилась новая преступная группа, называющая себя "Новая надежда". Один из полицейских внедряется в эту шайку и команда Кэйна выходит также на след серийного маньяка-насильника. Но операция по задержанию проваливается. Вдобавок, армейского друга Кэйна, ветерана войны, страдающего посттравматическим синдромом, подозревают в убийстве невинных людей из снайперской винтовки. Жители Сиэтла в ужасе, общественность возмущена и команде Кэйна придется применить все силы и навыки, чтобы кровь не захлестнула улицы города.
Бонусы: нет

Качество: DVD5 R5
Формат: DVD-Video
Видео кодек: MPEG2
Аудио кодек: AC3
Видео: PAL 16:9 (720x576(0.512)) MPEG Video, 25,000 кадр/сек, 5311 Кбит/сек
Аудио #1: Russian (Dolby AC3, 6 ch) 448 Кбит/сек, 48,0 КГц
Аудио #2: English (Dolby AC3, 6 ch) 448 Кбит/сек, 48,0 КГц



Title: Рабочий
Size: 3.85 Gb ( 4 033 292 KBytes ) - DVD-5
Enabled regions: 1, 2, 3, 4, 5, 6, 7, 8

VTS_01 :
Play Length: 01:26:05
Video: PAL 16:9 (720x576) VBR, Auto Letterboxed
Audio:
Russian (Dolby AC3, 6 ch)
English (Dolby AC3, 6 ch)

Menu Video:
PAL 16:9 (720x576) VBR
Auto Letterboxed
Menu Audio:
Not specified (Dolby AC3, 2 ch)
Menu Subtitles:
Not specified
Menu English Language Unit :
Root Menu
Общее
Полное имя : G:\Новинки 2011\Krovavoe.bratstvo.2011.P.DVD5\VIDEO_TS\VTS_01_1.VOB
Формат : MPEG-PS
Размер файла : 1000 Мбайт
Продолжительность : 22 м.
Общий поток : 6333 Кбит/сек

Видео
Идентификатор : 224 (0xE0)
Формат : MPEG Video
Версия формата : Version 2
Профиль формата : Main@Main
Параметр BVOP формата : Да
Параметр матрицы формата : Выборочная
Продолжительность : 22 м.
Вид битрейта : Переменный
Битрейт : 5311 Кбит/сек
Максимальный битрейт : 8000 Кбит/сек
Ширина : 720 пикселей
Высота : 576 пикселей
Соотношение сторон : 16:9
Частота кадров : 25,000 кадров/сек
Стандарт вещания : PAL
Цветовое пространство : YUV
Субдискретизация насыщенности : 4:2:0
Битовая глубина : 8 бит
Тип развёртки : Чересстрочная
Порядок развёртки : Верхнее поле первое
Метод сжатия : С потерями
Бит/(Пиксели*Кадры) : 0.512
Размер потока : 839 Мбайт (84%)

Аудио #1
Идентификатор : 189 (0xBD)-128 (0x80)
Формат : AC-3
Формат/Информация : Audio Coding 3
Расширение режима : CM (complete main)
Режим смешивания : DVD-Video
Продолжительность : 22 м.
Вид битрейта : Постоянный
Битрейт : 448 Кбит/сек
Каналы : 6 каналов
Расположение каналов : Front: L C R, Side: L R, LFE
Частота : 48,0 КГц
Битовая глубина : 16 бит
Метод сжатия : С потерями
Размер потока : 70,7 Мбайт (7%)

Аудио #2
Идентификатор : 189 (0xBD)-129 (0x81)
Формат : AC-3
Формат/Информация : Audio Coding 3
Расширение режима : CM (complete main)
Режим смешивания : DVD-Video
Продолжительность : 22 м.
Вид битрейта : Постоянный
Битрейт : 448 Кбит/сек
Каналы : 6 каналов
Расположение каналов : Front: L C R, Side: L R, LFE
Частота : 48,0 КГц
Битовая глубина : 16 бит
Метод сжатия : С потерями
Размер потока : 70,7 Мбайт (7%)










pb.wtf



Скачать Кровавое братство через торрент http://i1.imageban.ru/out/2011/09/24/bdd4544d1aa56520fc96e5aa7f564e35.jpg Скачать фильм Кровавое братство через торрент бесплантно в хорошем качестве Описание: Кэйн и его команда борются с новой волной криминала - в Сиэтле появилась новая преступная группа, называющая себя "Новая ... 4 10 6
Info! Золотая раздача, скачанное не засчитывается.
Торрент: Зарегистрирован [2011-09-23 22:08] · скачан: 43 раз
Статус: √ проверено
Размер: 3.85 GB
Как cкачать? Как скачать Кровавое братство через торрент | UTorrent

28-11-2019 20:33  

Отключить всю рекламу на сайте

    Дорогой пользователь! Огромная просьба, поблагодарите релизера, оцените раздачу и оставьте свои комментарий, если Вы скачали Кровавое братство через торрент бесплатно! Внесите свою лепту в развитие PiratBit!
    Комментировать посты могут только пользователи прошедшие не сложную регистрацию
    Показать сообщения:    

    Кровавое братство через торрент
    Скачать бесплатно Кровавое братство
    Кровавое братство скачать торрент
    Кровавое братство смотреть онлайн
    Cкачать фильм Кровавое братство бесплатно
    Кровавое братство скачать торрент в хорошем качестве
    Кровавое братство смотреть онлайн бесплатно в хорошем качестве


    Вы не можете начинать темы
    Вы не можете отвечать на сообщения
    Вы не можете редактировать свои сообщения
    Вы не можете удалять свои сообщения
    Вы не можете голосовать в опросах
    Вы не можете прикреплять файлы к сообщениям
    Вы можете скачивать файлы