Ссылка на приватное зеркало всего за 1$. Внимание количество ограничено!!!

iTunes

1+1

iTunes

мы

WEB-DL

1

iTunes

Чернобыль

iTunes

Ральф против интернета

Лицензия

ПШазам

Лицензия

Оно 2

Лицензия

30
pack

Вам бонус

ВАЖНО

!!Акция!!

Alien_RageХит недели

RePack

Resident Evil 21

ИГРА 18+

pack

RePack

jed

!!Акция!!

Alien_Rage

RePack

fifa19

RePack

Assassins Creed: Odyssey

RePack

NEED FOR SPEED™ PAYBACK

3 сезон

9 сезон

Бесстыжие 9 сезон

Все сериалы

все сериалы на PB.wtf

RePack

FAR CRY 5
Ребята, катастрофически не хватает 1900р. для оплаты серверов за Октябрь (всвязи с блокировками трафик упал в 3 раза), 1-2р., выручайте.
  

Кости / Bones / Сезон: 6 / Серии: 1-23 из 23 (Стивен ДеПол, Йен Тойнтон, Аллен Крокер) [2010, Драма, криминал, детектив, WEB-DLRip] DUB ТВ3 pb.wtf

Кости через торрент pb.wtf

Раздают: 1 [ 0 KB/s ]
Размер: 8.97 GB | Добавлен: 8 лет 2 мес. назад | Торрент скачан:623 раза
Скачать  

25-09-2011 14:51 Кости Скачать торрент  

Кости / Bones
Год выпуска: 2010
Страна: США
Жанр: Драма, криминал, детектив
Продолжительность: ~ 44 мин
Перевод: Профессиональный (полное дублирование) - ТВ3
Русские субтитры: нет
Субтитры: отсутствуют
Режиссёр: Стивен ДеПол, Йен Тойнтон, Аллен Крокер
В ролях: Эмили Дешанель, Дэвид Бореаназ, Михаэлла Конлин, Ти-Джей Тайн, Тамара Тейлор, Эрик Миллеган, Джон Фрэнсис Дейли, Джонатан Адамс, Патриция Белчер, Дэвид Гринман
Описание: Доктор Темперанс Бреннан, блестящий, но одинокий антрополог получает то, чего она меньше всего желала — напарника. Бюро посылает ей амбициозного агента ФБР Сили Бута, чтобы помочь в расследовании нераскрытых дел путем изучения и идентификации костей давно пропавших людей. Но давно умершие жертвы не единственное, с чем придется столкнуться Боунс, Буту и их команде, раскрывая преступления они часто сталкиваются с взяточничеством, коррупцией и местной разрозненностью


Над релизом работали:
Звук предоставил: koss
Работа со звуком: koss
Качество: WEB-DLRip
Формат: AVI
Видео кодек: XviD
Аудио кодек: MP3
Видео: 624Ч352 (1.77:1), 25 fps, XviD 64 ~1013 kbps avg, 0.19 bit/pixel
Аудио: 48 kHz, MPEG Layer 3, 2 ch, ~128.00 kbps avg
Аудио 2: 48 kHz, MPEG Layer 3, 2 ch, ~128.00 kbps avg
General
Complete name : I:\Закачки\Кости 6 (Дубляж ТВ3)\Bones.s06e01.WEBDLRip.NewStudio.avi
Format : AVI
Format/Info : Audio Video Interleave
File size : 399 MiB
Duration : 43mn 20s
Overall bit rate : 1 288 Kbps
Writing application : VirtualDubMod 1.5.10.2 (build 2540/release)
Writing library : VirtualDubMod build 2540/release
Video
Format : MPEG-4 Visual
Format profile : Streaming Video@L1
Format settings, BVOP : Yes
Format settings, QPel : No
Format settings, GMC : No warppoints
Format settings, Matrix : Default (MPEG)
Codec ID : XVID
Codec ID/Hint : XviD
Duration : 43mn 20s
Bit rate : 1 015 Kbps
Width : 624 pixels
Height : 352 pixels
Display aspect ratio : 16/9
Frame rate : 23.976 fps
Resolution : 24 bits
Colorimetry : 4:2:0
Scan type : Progressive
Bits/(Pixel*Frame) : 0.193
Stream size : 314 MiB (79%)
Writing library : XviD 64
Audio #1
Format : MPEG Audio
Format version : Version 1
Format profile : Layer 3
Codec ID : 55
Codec ID/Hint : MP3
Duration : 43mn 20s
Bit rate mode : Constant
Bit rate : 128 Kbps
Channel(s) : 2 channels
Sampling rate : 48.0 KHz
Resolution : 16 bits
Stream size : 39.7 MiB (10%)
Alignment : Aligned on interleaves
Interleave, duration : 42 ms (1.00 video frame)
Interleave, preload duration : 504 ms
Audio #2
Format : MPEG Audio
Format version : Version 1
Format profile : Layer 3
Codec ID : 55
Codec ID/Hint : MP3
Duration : 43mn 20s
Bit rate mode : Variable
Bit rate : 128 Kbps
Channel(s) : 2 channels
Sampling rate : 48.0 KHz
Resolution : 16 bits
Stream size : 39.6 MiB (10%)
Alignment : Aligned on interleaves
Interleave, duration : 24 ms (0.58 video frame)
Interleave, preload duration : 144 ms
pb.wtf



Скачать Кости через торрент http://i18.fastpic.ru/big/2011/0808/42/f420318e44e95a04e98953341e187442.jpg Скачать фильм Кости через торрент бесплантно в хорошем качестве Описание: Доктор Темперанс Бреннан, блестящий, но одинокий антрополог получает то, чего она меньше всего желала — напарника. Бюро посылает ... 9 10 8
Info! Золотая раздача, скачанное не засчитывается.
Торрент: Зарегистрирован [2011-09-25 14:51] · скачан: 623 раз
Статус: √ проверено
Размер: 8.97 GB
Как cкачать? Как скачать Кости через торрент | qTorrent

28-11-2019 20:33  

Отключить всю рекламу на сайте

23-10-2011 09:37 Кости Скачать торрент  

Седьмой сезон сериала Кости Начало показа: 03.11.2011pb.wtf



16-10-2012 15:54 Кости Скачать торрент  

кто смотрел? как перевод? смотреть можно?pb.wtf



18-12-2014 09:31 Кости Скачать торрент  

Скорости бы немного.......pb.wtf



    Дорогой пользователь! Огромная просьба, поблагодарите релизера, оцените раздачу и оставьте свои комментарий, если Вы скачали Кости через торрент бесплатно! Внесите свою лепту в развитие PiratBit!
    Комментировать посты могут только пользователи прошедшие не сложную регистрацию
    Показать сообщения:    

    Кости через торрент
    Скачать бесплатно Кости
    Кости скачать торрент
    Кости смотреть онлайн
    Cкачать фильм Кости бесплатно
    Кости скачать торрент в хорошем качестве
    Кости смотреть онлайн бесплатно в хорошем качестве


    Вы не можете начинать темы
    Вы не можете отвечать на сообщения
    Вы не можете редактировать свои сообщения
    Вы не можете удалять свои сообщения
    Вы не можете голосовать в опросах
    Вы не можете прикреплять файлы к сообщениям
    Вы можете скачивать файлы