Ссылка на приватное зеркало нашего сайта всего за 1$. Внимание количество ограничено!!!

2 сезон

iTunes

1 сезон

1

2 сезон

2 сезон

iTunes

1 сезон

RePack

30

Ultimate

ВАЖНО

ИГРА 18+

pack

RePack

MK11
pack

Забери бонус

RePack

jed

!!Акция!!

Alien_Rage

RePack

fifa19

RePack

Assassins Creed: Odyssey

RePack

NEED FOR SPEED™ PAYBACK

4 сезон

9 сезон

Бесстыжие 9 сезон

Все сериалы

все сериалы на PB.wtf

RePack

FAR CRY 5
  

Ночной эфир Александра Гордона (Леонид Гюне) [2001 г., документальный, TVRip] pb.wtf

Ночной эфир Александра Гордона через торрент pb.wtf

Размер: 38.9 GB | Добавлен: 9 лет 2 мес. назад | Торрент скачан:0 раз
Скачать  

26-09-2011 12:08 Ночной эфир Александра Гордона Скачать торрент  

Ночной эфир Александра Гордона

Год выпуска: 2001
Страна: Россия
Жанр: документальный
Продолжительность: 327 выпусков, 294 часа 46 минут 54 секунды
Перевод: Не требуется

Режиссер: Леонид Гюне

В ролях: А. Гордон и его гости

Описание: Новый проект Александра Гордона сознательно не носит никакого названия. Это не телевизионная программа в привычном виде, а скорее попытка, учитывая время и регулярность выхода, создать некое интеллектуальное информационное поле. В качестве гостей привлечены виднейшие носители гуманитарного знания. Свободная форма беседы коллег-профессионалов позволит заинтересовать аудиторию традиционно пренебрегающую "окультуренными" ток-шоу. Мысль сложная и ясная. Очевидность самого процесса мышления. Удовольствие от разума. Это и есть главные герои, сюжет и конфликт происходящего на глазах зрителей. Телевидение для тех, кто брезгует телевидением — вот концепция этого проекта.

Качество: TVRip
Формат: AVI
Видео кодек: DivX
Аудио кодек: MP3
Видео: 176 кбит/с, 280х238,25 fps
Аудио: 44,1 КГц, MPEG Layer 3, 1 ch, ~128.00 kbps avg


Общее
Полное имя : C:\Users\Алексей\Videos\Gordon\1. Сексуальность как сублимированное деторождение.avi
Формат : AVI
Формат/Информация : Audio Video Interleave
Размер файла : 219 Мбайт
Продолжительность : 1 ч. 37 м.
Общий поток : 313 Кбит/сек

Видео
Идентификатор : 0
Формат : MPEG-4 Visual
Параметр BVOP формата : Нет
Параметр QPel формата : Нет
Параметр GMC формата : Без точки перехода
Параметр матрицы формата : Default (H.263)
Идентификатор кодека : DX50
Идентификатор кодека/Подсказка : DivX 5
Продолжительность : 1 ч. 37 м.
Битрейт : 176 Кбит/сек
Ширина : 280 пикселей
Высота : 238 пикселей
Соотношение сторон : 1,176
Частота кадров : 25,000 кадров/сек
Цветовое пространство : YUV
Субдискретизация насыщенности : 4:2:0
Битовая глубина : 8 бит
Тип развёртки : Прогрессивная
Метод сжатия : С потерями
Бит/(Пиксели*Кадры) : 0.106
Размер потока : 123 Мбайт (56%)
Заголовок : Video
Библиотека кодирования : DivX 3330

Аудио
Идентификатор : 1
Формат : MPEG Audio
Версия формата : Version 1
Профиль формата : Layer 3
Идентификатор кодека : 55
Идентификатор кодека/Подсказка : MP3
Продолжительность : 1 ч. 37 м.
Вид битрейта : Постоянный
Битрейт : 128 Кбит/сек
Каналы : 1 канал
Частота : 44,1 КГц
Метод сжатия : С потерями
Размер потока : 89,3 Мбайт (41%)
Выравнивание : Разделение по промежуткам
Продолжительность промежутка : 40 мс. (1,00 видеокадр)
Время предзагрузки промежутка : 500 мс.
Заголовок : Audio
pb.wtf



Скачать Ночной эфир Александра Гордона через торрент http://i27.fastpic.ru/big/2011/0926/17/81655b6c5a6d1a0e1444e9a5947c1817.jpg Скачать фильм Ночной эфир Александра Гордона через торрент бесплантно в хорошем качестве Описание: Новый проект Александра Гордона сознательно не носит никакого названия. Это не телевизионная программа в привычном виде, а скорее ... 5 10 1
Info! Золотая раздача, скачанное не засчитывается.
Торрент: Зарегистрирован [2011-09-26 20:47] · скачан: 0 раз
Статус: √ проверено
Размер: 38.9 GB
Как cкачать? Как скачать Ночной эфир Александра Гордона через торрент | qTorrent



Последний раз редактировалось: alebz (2011-09-26 20:45), всего редактировалось 2 раз(а)

28-11-2019 20:33  

Отключить всю рекламу на сайте

26-09-2011 12:23 Ночной эфир Александра Гордона Скачать торрент  

сделайте раздачу золотой а то многовато весит сборникpb.wtf



26-09-2011 14:18 Ночной эфир Александра Гордона Скачать торрент  

Подскажите как, а то я в этом деле новичок.pb.wtf



26-09-2011 14:35 Ночной эфир Александра Гордона Скачать торрент  

золото давайте...pb.wtf



26-09-2011 17:43 Ночной эфир Александра Гордона Скачать торрент  

alebz
Выложи информацию МедиаИнфо. Тех данные не соответствуют. Скриншоты тоже. Видео и Аудио ряд , вообще не понятен.
Читаем правила.pb.wtf



26-09-2011 20:12 Ночной эфир Александра Гордона Скачать торрент  

размер кадра 300х240, для телефона чтоли pb.wtf



26-09-2011 21:39 Ночной эфир Александра Гордона Скачать торрент  

220v0lt писал(а):

размер кадра 300х240, для телефона чтоли

По большому счету, да. Не было смысла, учитывая качество исходников, сжимать в
высоком разрешении. Но это же не "Аватар" в плохом качестве смотреть.
Тут главное не форма, а содержание.pb.wtf



27-09-2011 02:15 Ночной эфир Александра Гордона Скачать торрент  

Автор раздачи или кто нибудь в курсе в этом сборнике все серии гордона?pb.wtf



27-09-2011 04:26 Ночной эфир Александра Гордона Скачать торрент  

Не хватает следующих выпусков:
3. Контекст современного философствования в России
6. Трансцендентальная схема экономических коллапсов, 1 часть
26. Вампиры и Дракула
75. Солнечный ветер
80. Мужское тело: от нагого к голому
114. Скверный анекдот
124. Храм Христа Спасителя
128. Секты

Но они есть в сетке, к сожалению, пока только в аудиоварианте.pb.wtf



02-10-2011 22:20 Ночной эфир Александра Гордона Скачать торрент  

Автор спасибо. Не уходи с раздачи =) Счас скачаю, буду раздавать, если это интересно кому. ;)

Мне например очень интересно.pb.wtf



    Дорогой пользователь! Огромная просьба, поблагодарите релизера, оцените раздачу и оставьте свои комментарий, если Вы скачали Ночной эфир Александра Гордона через торрент бесплатно! Внесите свою лепту в развитие PiratBit!
    Комментировать посты могут только пользователи прошедшие не сложную регистрацию
    Показать сообщения:    

    Ночной эфир Александра Гордона через торрент
    Скачать бесплатно Ночной эфир Александра Гордона
    Ночной эфир Александра Гордона скачать торрент
    Ночной эфир Александра Гордона смотреть онлайн
    Cкачать фильм Ночной эфир Александра Гордона бесплатно
    Ночной эфир Александра Гордона скачать торрент в хорошем качестве
    Ночной эфир Александра Гордона смотреть онлайн бесплатно в хорошем качестве


    Вы не можете начинать темы
    Вы не можете отвечать на сообщения
    Вы не можете редактировать свои сообщения
    Вы не можете удалять свои сообщения
    Вы не можете голосовать в опросах
    Вы не можете прикреплять файлы к сообщениям
    Вы можете скачивать файлы