1 сезон

3 сезон

iTunes

1

Line

MVO

iTunes

13

1 сезон

RePack

30

Deluxe

pack

Лицензия

ВАЖНО

ИГРА 18+

pack

RePack

MK11

RePack

jed

RePack

fifa19

RePack

RDR2

RePack

NEED FOR SPEED™ PAYBACK

4 сезон

9 сезон

Бесстыжие 9 сезон

Все сериалы

все сериалы на PB.wtf

RePack

FAR CRY 5

Anonymous, доброй ночи, мы катастрофически не успеваем собрать деньги на оплату серверов, помогите нам пожалуйста 5,10,15р., для нас важна любая помощь . В качестве благодарности мы отключим Вам всю рекламу на сайте (укажите свой ник в строку Ваше имя)!

×
  
Magnet ссылка

Цена страсти / The Ledge (Мэтью Чэпмен / Matthew Chapman) [2011, триллер, драма, DVD5] R5 «West Video» pb.wtf

Цена страсти через торрент pb.wtf

Размер: 4.37 GB | Добавлен: 9 лет 10 мес. назад | Торрент скачан:57 раз
Скачать  

28-09-2011 13:53 Цена страсти Скачать торрент  


Цена страсти / The Ledge
«One life. One chance. One step.»
Страна: США
Студия: Film & Entertainment VIP Medienfonds 4 GmbH & Co. KG (I), Modern Videofilm Inc.
Жанр: триллер, драма
Год выпуска: 2011
Мировая премьера: 21 января 2011
Российская премьера: 26 мая 2011, «West»
Дата выхода DVD: 27 сентября 2011, «West Video»
Дата выхода Blu-Ray: 27 сентября 2011, «West Video»
Продолжительность: 01:36:30
Перевод: Профессиональный (дублированный) [Лицензия]
Cубтитры: русские, украинские
Оригинальная аудиодорожка: английский
Режиссер: Мэтью Чэпмен / Matthew Chapman
В ролях: Патрик Уилсон, Лив Тайлер, Кристофер Горам, Чарли Ханнэм, Терренс Ховард, Жаклин Флеминг, Моника Акоста, Джиллиан Басерсон, Майк Пневски, Дин Дж. Уэст
Описание: «У нас прыгун!». Сколько раз офицер полиции Холлис Лучетти слышал эту фразу. В очередной раз он должен уговорить человека, стоящего на карнизе крыши, отказаться от прыжка. И всё это не в самый простой день для него самого. Время идёт, и Холлис начинает понимать, что всё идёт не так, как обычно в таких случаях. В течении часа он узнаёт не только о невероятной истории любви и страсти Шаны и Гэвина, но и цене, которую придётся заплатить всем.
Бонусы: Анонсы

Качество: DVD5 R5
Формат: DVD-Video
Видео кодек: MPEG2
Аудио кодек: AC3
Видео: PAL 16:9 (720x576(0.439)) MPEG Video, 25,000 кадр/сек, 4555 Кбит/сек
Аудио #1: Russian (Dolby AC3, 6 ch) 384 Кбит/сек, 48,0 КГц
Аудио #2: English (Dolby AC3, 6 ch) 384 Кбит/сек, 48,0 КГц



Title: Рабочий
Size: 4.37 Gb ( 4 579 216 KBytes ) - DVD-5
Enabled regions: 1, 2, 3, 4, 5, 6, 7, 8

VTS_01 :
Play Length: 00:00:23
Video: PAL 4:3 (720x576) VBR

VTS_02 :
Play Length: 00:01:47
Video: PAL 16:9 (720x576) VBR, Auto Pan&Scan
Audio:
Russian (Dolby AC3, 2 ch)

VTS_03 :
Play Length: 00:02:07
Video: PAL 16:9 (720x576) VBR, Auto Pan&Scan
Audio:
Russian (Dolby AC3, 2 ch)
Russian (Dolby AC3, 2 ch)

VTS_04 :
Play Length: 00:01:56
Video: PAL 16:9 (720x576) VBR, Auto Pan&Scan
Audio:
Russian (Dolby AC3, 6 ch)
Russian (Dolby AC3, 6 ch)

VTS_05 :
Play Length: 00:02:25
Video: PAL 16:9 (720x576) VBR, Auto Pan&Scan
Audio:
Russian (Dolby AC3, 2 ch)
English (Dolby AC3, 2 ch)

VTS_06 :
Play Length: 00:01:10
Video: PAL 4:3 (720x576) VBR
Audio:
English (Dolby AC3, 2 ch)
English (Dolby AC3, 2 ch)

VTS_07 :
Play Length: 01:36:30
Video: PAL 16:9 (720x576) VBR, Auto Pan&Scan, Auto Letterboxed
Audio:
Russian (Dolby AC3, 6 ch)
English (Dolby AC3, 6 ch)
Subtitles:
Russian
Ukrainian
Общее
Полное имя : G:\Новинки 2011\Cena.strasti.2011.DVD5\VIDEO_TS\VTS_07_1.VOB
Формат : MPEG-PS
Размер файла : 1024 Мбайт
Продолжительность : 26 м.
Общий поток : 5431 Кбит/сек

Видео
Идентификатор : 224 (0xE0)
Формат : MPEG Video
Версия формата : Version 2
Профиль формата : Main@Main
Параметр BVOP формата : Да
Параметр матрицы формата : Выборочная
Продолжительность : 26 м.
Вид битрейта : Переменный
Битрейт : 4555 Кбит/сек
Максимальный битрейт : 9800 Кбит/сек
Ширина : 720 пикселей
Высота : 576 пикселей
Соотношение сторон : 16:9
Частота кадров : 25,000 кадров/сек
Стандарт вещания : PAL
Цветовое пространство : YUV
Субдискретизация насыщенности : 4:2:0
Битовая глубина : 8 бит
Тип развёртки : Чересстрочная
Порядок развёртки : Верхнее поле первое
Метод сжатия : С потерями
Бит/(Пиксели*Кадры) : 0.439
Размер потока : 859 Мбайт (84%)

Аудио #1
Идентификатор : 189 (0xBD)-128 (0x80)
Формат : AC-3
Формат/Информация : Audio Coding 3
Расширение режима : CM (complete main)
Режим смешивания : DVD-Video
Продолжительность : 26 м.
Вид битрейта : Постоянный
Битрейт : 384 Кбит/сек
Каналы : 6 каналов
Расположение каналов : Front: L C R, Side: L R, LFE
Частота : 48,0 КГц
Битовая глубина : 16 бит
Метод сжатия : С потерями
Размер потока : 72,4 Мбайт (7%)

Аудио #2
Идентификатор : 189 (0xBD)-129 (0x81)
Формат : AC-3
Формат/Информация : Audio Coding 3
Расширение режима : CM (complete main)
Режим смешивания : DVD-Video
Продолжительность : 26 м.
Вид битрейта : Постоянный
Битрейт : 384 Кбит/сек
Каналы : 6 каналов
Расположение каналов : Front: L C R, Side: L R, LFE
Частота : 48,0 КГц
Битовая глубина : 16 бит
Метод сжатия : С потерями
Размер потока : 72,4 Мбайт (7%)










pb.wtf



Скачать Цена страсти через торрент http://i3.imageban.ru/out/2011/09/28/4818e356778473caf96b0bb7de36a039.jpg Скачать фильм Цена страсти через торрент бесплантно в хорошем качестве Описание: «У нас прыгун!». Сколько раз офицер полиции Холлис Лучетти слышал эту фразу. В очередной раз он должен уговорить человека, ... 5 10 2
Info! Золотая раздача, скачанное не засчитывается.
Торрент: Зарегистрирован [2011-09-28 13:53] · скачан: 57 раз
Статус: √ проверено
Размер: 4.37 GB
Как cкачать? Как скачать Цена страсти через торрент | UTorrent

28-11-2019 20:33  

Отключить всю рекламу на сайте

    Дорогой пользователь! Огромная просьба, поблагодарите релизера, оцените раздачу и оставьте свои комментарий, если Вы скачали Цена страсти через торрент бесплатно! Внесите свою лепту в развитие PiratBit!
    Комментировать посты могут только пользователи прошедшие не сложную регистрацию
    Показать сообщения:    

    Цена страсти через торрент
    Скачать бесплатно Цена страсти
    Цена страсти скачать торрент
    Цена страсти смотреть онлайн
    Cкачать фильм Цена страсти бесплатно
    Цена страсти скачать торрент в хорошем качестве
    Цена страсти смотреть онлайн бесплатно в хорошем качестве


    Вы не можете начинать темы
    Вы не можете отвечать на сообщения
    Вы не можете редактировать свои сообщения
    Вы не можете удалять свои сообщения
    Вы не можете голосовать в опросах
    Вы не можете прикреплять файлы к сообщениям
    Вы можете скачивать файлы