Ссылка на приватное зеркало всего за 1$. Внимание количество ограничено!!!

iTunes

1+1

iTunes

мы

WEB-DL

1

iTunes

Чернобыль

iTunes

Ральф против интернета

Лицензия

ПШазам

Лицензия

Оно 2

Лицензия

30
pack

Вам бонус

ВАЖНО

!!Акция!!

Alien_RageХит недели

RePack

Resident Evil 21

ИГРА 18+

pack

RePack

jed

!!Акция!!

Alien_Rage

RePack

fifa19

RePack

Assassins Creed: Odyssey

RePack

NEED FOR SPEED™ PAYBACK

3 сезон

9 сезон

Бесстыжие 9 сезон

Все сериалы

все сериалы на PB.wtf

RePack

FAR CRY 5
Ребята, катастрофически не хватает 1900р. для оплаты серверов за Октябрь (всвязи с блокировками трафик упал в 3 раза), 1-2р., выручайте.
  

Последний Мамонт Франции / Mammuth (Гюстав де Керверн, Бенуа Делепин) [2010, драма, комедия, DVD9] R5 pb.wtf

Последний Мамонт Франции через торрент pb.wtf

Размер: 6.66 GB | Добавлен: 8 лет 2 мес. назад | Торрент скачан:22 раза
Скачать  

28-09-2011 23:10 Последний Мамонт Франции Скачать торрент  


Последний Мамонт Франции / Mammuth
Страна: Франция
Студия: arte France Cinéma, Banque Postale Image 3, La, Canal+ [fr], Centre National de la Cinématographie, Ciné Cinémas, Département de la Charente, Département de la Charente-Maritime, DD Productions, G.M.T. Productions, Monkey Pack Films, No Money Productions, Région Poitou-Charentes
Жанр: драма, комедия
Год выпуска: 2010
Мировая премьера: 19 февраля 2010
Российская премьера: 21 июля 2011, «Кино без границ»
Дата выхода DVD: 29 сентября 2011, «Новый Диск»
Продолжительность: 01:27:30
Перевод: Профессиональный (многоголосый закадровый) [Лицензия]
Cубтитры: русские
Оригинальная аудиодорожка: французский
Режиссер: Гюстав де Керверн, Бенуа Делепин / Gustave de Kervern, Benoît Delépine
В ролях: Жерар Депардье, Иоланда Моро, Изабель Аджани, Бенуа Пульворд, Мисс Минг, Блатч, Филипп Наон, Боли Ланнерс, Анна Муглалис
Описание: Работник бойни, грузный и молчаливый, только что отметил 60-летие, и его коллеги организовали прощальную вечеринку, чтобы отпраздновать его уход на пенсию. Он начал работать в шестнадцать, его никогда не выгоняли с работы, он даже никогда не болел. Но затем он обнаруживает, что не менее шести его работодателей забывали регистрировать его у себя, и теперь, чтобы получать пенсию, он должен предоставить доказательства того, что он работал именно у них.
Бонусы: Биография создателей и исполнителей, Трейлеры, Фотогалерея

Релиз группы:
Качество: DVD9 R5
Формат: DVD-Video
Видео кодек: MPEG2
Аудио кодек: AC3
Видео: PAL 16:9 (720x576(0.765)) MPEG Video, 25,000 кадр/сек, 7931 Кбит/сек
Аудио #1: Russian (Dolby AC3, 2 ch) 224 Кбит/сек, 48,0 КГц
Аудио #2: French (Dolby AC3, 6 ch) 448 Кбит/сек, 48,0 КГц



Title:
Size: 6.66 Gb ( 6 979 124 KBytes ) - DVD-9
Enabled regions: 1, 2, 3, 4, 5, 6, 7, 8

VTS_01 :
Play Length: 00:00:15
Video: PAL 4:3 (720x576) VBR
Audio:
Not specified (Dolby AC3, 2 ch)

VTS_02 :
Play Length: 00:00:08
Video: PAL 16:9 (720x576) VBR, Auto Pan&Scan
Audio:
Not specified (Dolby AC3, 2 ch)

VTS_03 :
Play Length: 00:00:09
Video: PAL 16:9 (720x576) VBR, Auto Pan&Scan
Audio:
Not specified (Dolby AC3, 2 ch)

VTS_04 :
Play Length: 00:00:15
Video: PAL 4:3 (720x576) VBR
Audio:
Not specified (Dolby AC3, 2 ch)

VTS_05 :
Play Length: 00:00:15
Video: PAL 16:9 (720x576) VBR, Auto Pan&Scan
Audio:
Not specified (Dolby AC3, 2 ch)

VTS_06 :
Play Length: 00:00:20
Video: PAL 16:9 (720x576) VBR, Auto Pan&Scan
Audio:
Not specified (Dolby AC3, 2 ch)

VTS_07 :
Play Length: 00:01:45
Video: PAL 16:9 (720x576) VBR, Auto Pan&Scan
Audio:
Not specified (Dolby AC3, 2 ch)

VTS_08 :
Play Length: 01:27:30
Video: PAL 16:9 (720x576) VBR, Auto Pan&Scan
Audio:
Russian (Dolby AC3, 2 ch)
Korean (Dolby AC3, 6 ch)
Subtitles:
Russian

VTS_09 :
Play Length: 00:01:48
Video: PAL 16:9 (720x576) VBR, Auto Pan&Scan
Audio:
Not specified (Dolby AC3, 2 ch)

VTS_10 :
Play Length: 00:01:55
Video: PAL 16:9 (720x576) VBR, Auto Pan&Scan
Audio:
Not specified (Dolby AC3, 2 ch)

VTS_11 :
Play Length: 00:01:07
Video: PAL 4:3 (720x576) VBR
Audio:
Not specified (Dolby AC3, 2 ch)

VTS_12 :
Play Length: 00:02:23
Video: PAL 16:9 (720x576) VBR, Auto Pan&Scan
Audio:
Not specified (Dolby AC3, 2 ch)

VTS_13 :
Play Length: 00:02:31
Video: PAL 4:3 (720x576) VBR
Audio:
Not specified (Dolby AC3, 2 ch)

VTS_14 :
Play Length: 00:01:32
Video: PAL 4:3 (720x576) VBR
Audio:
Not specified (Dolby AC3, 2 ch)

VTS_15 :
Play Length: 00:02:18
Video: PAL 16:9 (720x576) VBR, Auto Pan&Scan
Audio:
Not specified (Dolby AC3, 2 ch)

VTS_16 :
Play Length: 00:01:32
Video: PAL 4:3 (720x576) VBR
Audio:
Not specified (Dolby AC3, 2 ch)

VTS_17 :
Play Length: 00:01:56
Video: PAL 16:9 (720x576) VBR, Auto Pan&Scan
Audio:
Not specified (Dolby AC3, 2 ch)

VTS_18 :
Play Length: 00:02:36
Video: PAL 4:3 (720x576) VBR
Audio:
Not specified (Dolby AC3, 2 ch)

VTS_19 :
Play Length: 00:01:53
Video: PAL 4:3 (720x576) VBR
Audio:
Not specified (Dolby AC3, 2 ch)

VTS_20 :
Play Length: 00:02:06
Video: PAL 16:9 (720x576) VBR, Auto Pan&Scan
Audio:
Not specified (Dolby AC3, 2 ch)

VTS_21 :
Play Length: 00:02:15
Video: PAL 16:9 (720x576) VBR, Auto Pan&Scan
Audio:
Not specified (Dolby AC3, 2 ch)

VTS_22 :
Play Length: 00:01:29
Video: PAL 4:3 (720x576) VBR
Audio:
Not specified (Dolby AC3, 2 ch)

VTS_23 :
Play Length: 00:02:16
Video: PAL 16:9 (720x576) VBR, Auto Pan&Scan
Audio:
Not specified (Dolby AC3, 2 ch)
Общее
Полное имя : G:\Новинки 2011\Poslednij.mamont.Francii.2010.DVD9\VIDEO_TS\VTS_08_1.VOB
Формат : MPEG-PS
Размер файла : 1024 Мбайт
Продолжительность : 16 м.
Общий поток : 8777 Кбит/сек

Видео
Идентификатор : 224 (0xE0)
Формат : MPEG Video
Версия формата : Version 2
Профиль формата : Main@Main
Параметр BVOP формата : Да
Параметр матрицы формата : Выборочная
Параметр GOP формата : M=3, N=15
Продолжительность : 16 м.
Вид битрейта : Переменный
Битрейт : 7931 Кбит/сек
Максимальный битрейт : 8000 Кбит/сек
Ширина : 720 пикселей
Высота : 576 пикселей
Соотношение сторон : 16:9
Частота кадров : 25,000 кадров/сек
Стандарт вещания : PAL
Цветовое пространство : YUV
Субдискретизация насыщенности : 4:2:0
Битовая глубина : 8 бит
Тип развёртки : Чересстрочная
Порядок развёртки : Верхнее поле первое
Метод сжатия : С потерями
Бит/(Пиксели*Кадры) : 0.765
Размер потока : 925 Мбайт (90%)

Аудио #1
Идентификатор : 189 (0xBD)-128 (0x80)
Формат : AC-3
Формат/Информация : Audio Coding 3
Расширение режима : CM (complete main)
Режим смешивания : DVD-Video
Продолжительность : 16 м.
Вид битрейта : Постоянный
Битрейт : 224 Кбит/сек
Каналы : 2 канала
Расположение каналов : Front: L R
Частота : 48,0 КГц
Битовая глубина : 16 бит
Метод сжатия : С потерями
Задержка видео : -80 мс.
Размер потока : 26,1 Мбайт (3%)

Аудио #2
Идентификатор : 189 (0xBD)-129 (0x81)
Формат : AC-3
Формат/Информация : Audio Coding 3
Расширение режима : CM (complete main)
Режим смешивания : DVD-Video
Продолжительность : 16 м.
Вид битрейта : Постоянный
Битрейт : 448 Кбит/сек
Каналы : 6 каналов
Расположение каналов : Front: L C R, Side: L R, LFE
Частота : 48,0 КГц
Битовая глубина : 16 бит
Метод сжатия : С потерями
Задержка видео : -80 мс.
Размер потока : 52,3 Мбайт (5%)










pb.wtf



Скачать Последний Мамонт Франции через торрент http://i2.imageban.ru/out/2011/09/29/f22e5be10303ce3d67397113daa18611.jpg Скачать фильм Последний Мамонт Франции через торрент бесплантно в хорошем качестве Описание: Работник бойни, грузный и молчаливый, только что отметил 60-летие, и его коллеги организовали прощальную вечеринку, чтобы ... 5 10 1
Info! Золотая раздача, скачанное не засчитывается.
Торрент: Зарегистрирован [2011-09-28 23:10] · скачан: 22 раз
Статус: √ проверено
Размер: 6.66 GB
Как cкачать? Как скачать Последний Мамонт Франции через торрент | qTorrent

28-11-2019 20:33  

Отключить всю рекламу на сайте

    Дорогой пользователь! Огромная просьба, поблагодарите релизера, оцените раздачу и оставьте свои комментарий, если Вы скачали Последний Мамонт Франции через торрент бесплатно! Внесите свою лепту в развитие PiratBit!
    Комментировать посты могут только пользователи прошедшие не сложную регистрацию
    Показать сообщения:    

    Последний Мамонт Франции через торрент
    Скачать бесплатно Последний Мамонт Франции
    Последний Мамонт Франции скачать торрент
    Последний Мамонт Франции смотреть онлайн
    Cкачать фильм Последний Мамонт Франции бесплатно
    Последний Мамонт Франции скачать торрент в хорошем качестве
    Последний Мамонт Франции смотреть онлайн бесплатно в хорошем качестве


    Вы не можете начинать темы
    Вы не можете отвечать на сообщения
    Вы не можете редактировать свои сообщения
    Вы не можете удалять свои сообщения
    Вы не можете голосовать в опросах
    Вы не можете прикреплять файлы к сообщениям
    Вы можете скачивать файлы