Доктор Стрэндж

Лицензия

Добыча

Дубляж

Дом дракона

1 сезон

Тор

Дубляж

В эфире

Дубляж

Там, где раки поют

MVO

Властелин колец

1 сезон

GLOBAL

pack

Рекомендуем

30

Пиратка

ВАЖНО

ВАЖНО

Ghostwire

Пиратка

jed

RePack

nioh2

RePack

RDR2

RePack

NEED FOR SPEED™ PAYBACK

RePack

скачать торрент

Кинопоиск HD

Острые козырьки 6 сезон

6 сезон

FAR CRY 6

RePack

скачать торрент

Лицензия

скачать торрент

MVO

1

1 сезон

скачать торрент

1 сезон

скачать торрент

Лицензия

  

(Melodic Death Metal) Nightrage - Insidious - 2011, FLAC (image + .cue), lossless

через торрент pb.wtf

Размер: 395 MB | Добавлен: 11 лет назад | Торрент скачан:4 раза
| Скачать   

29-09-2011 11:46 Скачать торрент  

Nightrage - Insidious

Страна: Швеция

Жанр: Melodic Death Metal

Год выпуска: 2011

Формат: FLAC (image + .cue)

Битрейт аудио: lossless

Продолжительность: 00:53:11

Издатель: Lifeforce Records

Номер по каталогу: LFR 118-2

Трэклист:
01. So far Away (Intro) (1:18)
02. Delirium Of The Fallen (4:14)
03. Insidious (3:43)
04. Wrapped In Deceitful Dreams (3:52)
05. Hate Turns Black (4:31)
06. Sham Piety (5:31)
07. Cloaked In Wolf Skin (3:22)
08. This world is Coming To An End (3:27)
09. Utmost End Of Pain (4:23)
10. Poignant Memories (3:55)
11. Hush Of Night (3:38)
12. Poisoned Pawn (3:57)
13. Solar Eclipse (Prelude) (0:35)
14. Solar Corona (5:41)
15. Emblem Of light (Outro) (1:05)

Код:

Exact Audio Copy V1.0 beta 1 from 15. November 2010

EAC extraction logfile from 24. September 2011, 11:55

Nightrage / Insidious

Used drive  : Optiarc BD ROM BC-5500S   Adapter: 0  ID: 1

Read mode               : Secure
Utilize accurate stream : Yes
Defeat audio cache      : Yes
Make use of C2 pointers : No

Read offset correction                      : 48
Overread into Lead-In and Lead-Out          : No
Fill up missing offset samples with silence : Yes
Delete leading and trailing silent blocks   : No
Null samples used in CRC calculations       : Yes
Used interface                              : Native Win32 interface for Win NT & 2000

Used output format              : User Defined Encoder
Selected bitrate                : 1024 kBit/s
Quality                         : High
Add ID3 tag                     : No
Command line compressor         : C:\Program Files\Exact Audio Copy\FLAC\FLAC.EXE
Additional command line options : -6 -V -T "ARTIST=%a" -T "TITLE=%t" -T "ALBUM=%g" -T "DATE=%y" -T "TRACKNUMBER=%n" -T "GENRE=%m" -T "COMMENT=%e" %j--picture="%i"%j %s -o %d

TOC of the extracted CD

     Track |   Start  |  Length  | Start sector | End sector
    ---------------------------------------------------------
        1  |  0:00.00 |  1:18.01 |         0    |     5850
        2  |  1:18.01 |  4:14.15 |      5851    |    24915
        3  |  5:32.16 |  3:42.38 |     24916    |    41603
        4  |  9:14.54 |  3:52.06 |     41604    |    59009
        5  | 13:06.60 |  4:31.01 |     59010    |    79335
        6  | 17:37.61 |  5:30.39 |     79336    |   104124
        7  | 23:08.25 |  3:22.27 |    104125    |   119301
        8  | 26:30.52 |  3:26.39 |    119302    |   134790
        9  | 29:57.16 |  4:22.39 |    134791    |   154479
       10  | 34:19.55 |  3:54.72 |    154480    |   172101
       11  | 38:14.52 |  3:37.47 |    172102    |   188423
       12  | 41:52.24 |  3:57.33 |    188424    |   206231
       13  | 45:49.57 |  0:34.58 |    206232    |   208839
       14  | 46:24.40 |  5:41.31 |    208840    |   234445
       15  | 52:05.71 |  1:05.30 |    234446    |   239350

Range status and errors

Selected range

     Filename G:\Downloads\METAL\Nightrage\2011-Insidious(flac)\Nightrage - Insidious.wav

     Peak level 99.8 %
     Extraction speed 0.0 X
     Range quality 100.0 %
     Test CRC 48E84748
     Copy CRC 48E84748
     Copy OK

No errors occurred

End of status report

==== Log checksum AB8F46B0CDDAF3077E0BEAD3F380B6E50744664AA559A06BD1452CBA1221E86C ====


Код:

-----------------------

DON'T MODIFY THIS FILE

-----------------------

PERFORMER: auCDtect Task Manager, ver. 1.5.1RC4 build 1.5.1.5
Copyright (c) 2008-2010 y-soft. All rights reserved
http://y-soft.org

ANALYZER: auCDtect: CD records authenticity detector, version 0.8.2
Copyright (c) 2004 Oleg Berngardt. All rights reserved.
Copyright (c) 2004 Alexander Djourik. All rights reserved.

FILE: Nightrage - Insidious.flac
  Size: 406100690 Hash: B540A4DB4BFE37BE41F98364BBC11105 Accuracy: -m0
  Conclusion: CDDA 100%
  Signature: AF01AABA65E8A97887427E82809241E43DC38B07


Nightrage — музыкальная группа, играющая мелодичный дэт-метал, сформированная гитаристом из Греции Мариосом Илиопулосом и его другом, Гасом Джи, ныне работающим с Оззи Осборном и Firewind.

Состав:
Antony Hämäläinen — вокал
Marios Iliopoulos — гитара
Olof Mörck — гитара
Anders Hammer — бас
Johan Nunez — ударные

Офф. сайт группы



Скачать через торрент http://img42./img42/1390/80429743.jpg Скачать, смотреть онлайн бесплантно в хорошем качестве Трэклист: So far Away (Intro) (1:18) Delirium Of The Fallen (4:14) Insidious (3:43) Wrapped In Deceitful Dreams (3:52) Hate ... 5 10 2
Info! Золотая раздача, скачанное не засчитывается.
Торрент: Зарегистрирован [2011-09-29 11:51] · скачан: 4 раз
Статус: √ проверено
Размер: 395 MB
Как cкачать? Как скачать через торрент | UTorrent

28-11-2019 20:33  


Отключить вcю реклaмy на сайте, в т.ч. и в плеере онлайн просмотра!

    Дорогой пользователь! Огромная просьба, поблагодарите релизера, оцените раздачу и оставьте свои комментарий, если Вы скачали через торрент бесплатно!!
    Комментировать посты могут только пользователи прошедшие не сложную регистрацию
    Показать сообщения:    


    через торрент
    Скачать бесплатно
    скачать торрент
    смотреть онлайн
    Cкачать фильм бесплатно
    скачать торрент в хорошем качестве
    смотреть онлайн бесплатно в хорошем качестве
    Вы не можете начинать темы
    Вы не можете отвечать на сообщения
    Вы не можете редактировать свои сообщения
    Вы не можете удалять свои сообщения
    Вы не можете голосовать в опросах
    Вы не можете прикреплять файлы к сообщениям
    Вы можете скачивать файлы
    Nightrage - Insidious - 2011, FLAC , lossless смотреть онлайн, скачать торрент picoco.icu