2 сезон

iTunes

1 сезон

1

iTunes

iTunes

iTunes

1 сезон

RePack

30

ИГРА 18+

pack

ВАЖНО

!!Акция!!

Alien_RageХит недели

RePack

MK11
pack

Забери бонус

RePack

jed

!!Акция!!

Alien_Rage

RePack

fifa19

RePack

Assassins Creed: Odyssey

RePack

NEED FOR SPEED™ PAYBACK

4 сезон

9 сезон

Бесстыжие 9 сезон

Все сериалы

все сериалы на PB.wtf

RePack

FAR CRY 5
  

Бойцы / Fighters (Robby D / Digital Playground) [2011 г., Feature, Big Budget, BDRip] [720] pb.wtf

Бойцы через торрент pb.wtf

Размер: 6.56 GB | Добавлен: 9 лет назад | Торрент скачан:312 раз
Скачать  

01-10-2011 03:46 Бойцы Скачать торрент  

Fighters / Бойцы

Год производства: 2011 г. Страна: USA Жанр: Feature, Big Budget Продолжительность: 02:59:22
Субтитры: Нет Язык: Английский
Режиссер: Robby D. Студия: Digital Playground
В ролях:
BiBi Jones, Charles Dera, Erik Everhard, Jesse Jane, Kayden Kross, Manuel Ferrara, Ramon Nomar, Riley Steele, Scott Nails, Stoya, Tommy Gunn, Toni Ribas, Vicki Chase
Описание: | IMDB |
Two beautiful, passionate girls from opposite walks of life come together in a battle of lust, raw emotion, egos and unyielding wills to fight it out in a stealthy boxing match. Gorgeous yet tough Jesse Jane combats her troubled home life with her perverted, skirt chasing father, Tommy Gunn, and finds her intense desire to fight with the help of her naughty sister, Riley Steele, and compassionate coach, Scott Nails. Sexy Kayden Kross punches out her deep seated feelings with a fiery need for boxing, supported by her sexually ravenous friend Stoya and a horny young house guest. Fueled by their inner demons, Jesse and Kayden come face to face in the best performances of their careers, ready to box it out and ultimately test whose desire and passion will prevail.
Качество видео: BDRip Формат видео: MKV
Видео кодек: AVC Аудио кодек: AC3
Видео: AVC | 16:9 | 1280x720 | 23.976 fps | 4 506 Kbps
Аудио: AC3 | 48.0 KHz | 6 ch | 640 Kbps

Код:

General
Complete name                    : E:Приватjiggly-fighters-720p.mkv
Format                           : Matroska
File size                        : 6.56 GiB
Duration                         : 2h 58mn
Overall bit rate                 : 5 250 Kbps
Encoded date                     : UTC 2011-09-30 07:50:46
Writing application              : mkvmerge v4.4.0 ('Die Wiederkehr') built on Oct 31 2010 21:52:48
Writing library                  : libebml v1.0.0 + libmatroska v1.0.0
Video
ID                               : 1
Format                           : AVC
Format/Info                      : Advanced Video Codec
Format profile                   : High@L4.1
Format settings, CABAC           : Yes
Format settings, ReFrames        : 5 frames
Muxing mode                      : Container profile=Unknown@4.1
Codec ID                         : V_MPEG4/ISO/AVC
Duration                         : 2h 58mn
Bit rate                         : 4 506 Kbps
Nominal bit rate                 : 4 610 Kbps
Width                            : 1 280 pixels
Height                           : 720 pixels
Display aspect ratio             : 16:9
Frame rate                       : 23.976 fps
Resolution                       : 8 bits
Colorimetry                      : 4:2:0
Scan type                        : Progressive
Bits/(Pixel*Frame)               : 0.204
Stream size                      : 5.62 GiB (86%)
Writing library                  : x264 core 118 r2085 8a62835
Encoding settings                : cabac=1 / ref=5 / deblock=1:0:0 / analyse=0x3:0x133 / me=umh / subme=7 / psy=1 / psy_rd=1.00:0.00 / mixed_ref=1 / me_range=16 / chroma_me=1 / trellis=1 / 8x8dct=1 / cqm=0 / deadzone=21,11 / fast_pskip=0 / chroma_qp_offset=-2 / threads=12 / sliced_threads=0 / nr=0 / decimate=1 / interlaced=0 / bluray_compat=0 / constrained_intra=0 / bframes=3 / b_pyramid=2 / b_adapt=1 / b_bias=0 / direct=1 / weightb=1 / open_gop=0 / weightp=2 / keyint=250 / keyint_min=23 / scenecut=40 / intra_refresh=0 / rc_lookahead=40 / rc=2pass / mbtree=1 / bitrate=4610 / ratetol=1.0 / qcomp=0.60 / qpmin=10 / qpmax=51 / qpstep=4 / cplxblur=20.0 / qblur=0.5 / ip_ratio=1.40 / aq=1:1.00
Audio
ID                               : 2
Format                           : AC-3
Format/Info                      : Audio Coding 3
Codec ID                         : A_AC3
Duration                         : 2h 58mn
Bit rate mode                    : Constant
Bit rate                         : 640 Kbps
Channel(s)                       : 6 channels
Channel positions                : Front: L C R, Surround: L R, LFE
Sampling rate                    : 48.0 KHz
Stream size                      : 818 MiB (12%)

pb.wtf



pack Скачать Бойцы через торрент http://i30.fastpic.ru/big/2011/1001/27/0b5f1c9664f46ce79b50e0eba682b727.jpg Скачать фильм Бойцы через торрент бесплантно в хорошем качестве Описание: | IMDB |Two beautiful, passionate girls from opposite walks of life come together in a battle of lust, raw emotion, egos and ... 4.6 10 7
Info! Золотая раздача, скачанное не засчитывается.
Торрент: Зарегистрирован [2011-10-01 03:46] · скачан: 312 раз
Статус: √ проверено
Размер: 6.56 GB
Как cкачать? Как скачать Бойцы через торрент | qTorrent

% Раздел Тема Автор DL S | L
Фильмы (DVD фильмы) [ 5.12 GB ] Король бойцов / The King of Fighters [2010 DVD9] R5 voovaz Скачать
1 | 0
Фильмы 2010 [ 745 MB ] Король бойцов / The King of Fighters [2010 HDRip] Anonymous Скачать
1 | 0
Фильмы 2010 [ 1.37 GB ] Король бойцов / King of Fighters The [2010 HDRip лицензия] Lil Badun Скачать
1 | 0

28-11-2019 20:33  

Отключить всю рекламу на сайте

    Дорогой пользователь! Огромная просьба, поблагодарите релизера, оцените раздачу и оставьте свои комментарий, если Вы скачали Бойцы через торрент бесплатно! Внесите свою лепту в развитие PiratBit!
    Комментировать посты могут только пользователи прошедшие не сложную регистрацию
    Показать сообщения:    

    Бойцы через торрент
    Скачать бесплатно Бойцы
    Бойцы скачать торрент
    Бойцы смотреть онлайн
    Cкачать фильм Бойцы бесплатно
    Бойцы скачать торрент в хорошем качестве
    Бойцы смотреть онлайн бесплатно в хорошем качестве


    Вы не можете начинать темы
    Вы не можете отвечать на сообщения
    Вы не можете редактировать свои сообщения
    Вы не можете удалять свои сообщения
    Вы не можете голосовать в опросах
    Вы не можете прикреплять файлы к сообщениям
    Вы можете скачивать файлы