2 сезон

iTunes

1 сезон

1

iTunes

iTunes

iTunes

1 сезон

RePack

30

ИГРА 18+

pack

ВАЖНО

!!Акция!!

Alien_RageХит недели

RePack

MK11
pack

Забери бонус

RePack

jed

!!Акция!!

Alien_Rage

RePack

fifa19

RePack

Assassins Creed: Odyssey

RePack

NEED FOR SPEED™ PAYBACK

4 сезон

9 сезон

Бесстыжие 9 сезон

Все сериалы

все сериалы на PB.wtf

RePack

FAR CRY 5
  

Ужасные Латиноамериканки #2 / Hardcore Latinas #2 (James Avalon, Penthouse) [2011 г., Feature, Hardcore, All Sex, HDTV, 720p] pb.wtf

Ужасные Латиноамериканки #2 через торрент pb.wtf

Размер: 3.28 GB | Добавлен: 9 лет назад | Торрент скачан:226 раз
Скачать  

01-10-2011 04:39 Ужасные Латиноамериканки #2 Скачать торрент  

Hardcore Latinas #2 / Ужасные Латиноамериканки #2
Год производства: 2011 г.
Страна: США
Жанр: Feature, Hardcore, All Sex
Продолжительность:01:28:46
Язык: Английский
Режиссер: James Avalon
Студия: Penthouse
В ролях: Rebeca Linares, Exotica, Alexis Amore, Daisy Marie, Jasmine Byrne, Renae Cruz, Audrey Bitoni, Aiden Starr, Cassandra Cruz, Ann Marie Rios, Vanessa Lane, Alexis Love, Monique Fuentes, Maya Gates, Yurizan Beltran, Isis Love, Chayse Evans, Alexa Nicole, Pepper Foxxx, Lana Lopez, Nikki Fairchild, Melissa Jacobs, Renee Diaz
Описание:
Доп. материалы и бонусы: нет
Качество видео: HDTV
Тип HD видео: 720p
Формат видео: MKV
Видео кодек: H.264/AVC
Аудио кодек: AC3
Video: MPEG4 Video (H264) 1280x720 25.00fps 5096Kbps
Audio: Dolby AC3 48000Hz stereo 192Kbps
Format : Matroska
File size : 3.28 GiB
Duration : 1h 28mn
Overall bit rate : 5 290 Kbps
Encoded date : UTC 2011-09-26 07:10:58
Writing application : mkvmerge v4.9.1 ('Ich will') built on Jul 11 2011 23:53:15
Writing library : libebml v1.2.1 + libmatroska v1.1.1
Video
ID : 1
Format : AVC
Format/Info : Advanced Video Codec
Format profile : High@L4.1
Format settings, CABAC : Yes
Format settings, ReFrames : 5 frames
Muxing mode : Container profile=Unknown@4.1
Codec ID : V_MPEG4/ISO/AVC
Duration : 1h 28mn
Bit rate : 5 096 Kbps
Width : 1 280 pixels
Height : 720 pixels
Display aspect ratio : 16:9
Frame rate : 25.000 fps
Color space : YUV
Chroma subsampling : 4:2:0
Bit depth : 8 bits
Scan type : Progressive
Bits/(Pixel*Frame) : 0.221
Stream size : 3.10 GiB (94%)
Writing library : x264 core 118 r2085 8a62835
Encoding settings : cabac=1 / ref=5 / deblock=1:0:0 / analyse=0x3:0x133 / me=umh / subme=7 / psy=1 / psy_rd=1.00:0.00 / mixed_ref=1 / me_range=16 / chroma_me=1 / trellis=1 / 8x8dct=1 / cqm=0 / deadzone=21,11 / fast_pskip=0 / chroma_qp_offset=-2 / threads=12 / sliced_threads=0 / nr=0 / decimate=1 / interlaced=0 / bluray_compat=0 / constrained_intra=0 / bframes=3 / b_pyramid=2 / b_adapt=1 / b_bias=0 / direct=1 / weightb=1 / open_gop=0 / weightp=2 / keyint=250 / keyint_min=25 / scenecut=40 / intra_refresh=0 / rc_lookahead=40 / rc=2pass / mbtree=1 / bitrate=5096 / ratetol=1.0 / qcomp=0.60 / qpmin=0 / qpmax=51 / qpstep=4 / cplxblur=20.0 / qblur=0.5 / ip_ratio=1.40 / aq=1:1.00
Audio
ID : 2
Format : AC-3
Format/Info : Audio Coding 3
Mode extension : CM (complete main)
Codec ID : A_AC3
Duration : 1h 28mn
Bit rate mode : Constant
Bit rate : 192 Kbps
Channel(s) : 2 channels
Channel positions : Front: L R
Sampling rate : 48.0 KHz
Bit depth : 16 bits
Stream size : 122 MiB (4%)
pb.wtf



pack Скачать Ужасные Латиноамериканки #2 через торрент http://i31.fastpic.ru/big/2011/1001/c2/9468a6bce63960243189cde809b2b3c2.jpg Скачать фильм Ужасные Латиноамериканки #2 через торрент бесплантно в хорошем качестве Описание:Доп. материалы и бонусы: ... 4.3 10 7
Info! Золотая раздача, скачанное не засчитывается.
Торрент: Зарегистрирован [2011-10-01 04:39] · скачан: 226 раз
Статус: √ проверено
Размер: 3.28 GB
Как cкачать? Как скачать Ужасные Латиноамериканки #2 через торрент | qTorrent



Последний раз редактировалось: compact2010 (2011-10-02 03:43), всего редактировалось 1 раз

28-11-2019 20:33  

Отключить всю рекламу на сайте

01-10-2011 08:47 Ужасные Латиноамериканки #2 Скачать торрент  

супер!!!pb.wtf



pack

02-10-2011 03:43 Ужасные Латиноамериканки #2 Скачать торрент  

указалpb.wtf



pack

02-10-2011 04:04 Ужасные Латиноамериканки #2 Скачать торрент  

Ужасные Латиноамериканки такие секси!!!
Спасибо)))pb.wtf



pack
    Дорогой пользователь! Огромная просьба, поблагодарите релизера, оцените раздачу и оставьте свои комментарий, если Вы скачали Ужасные Латиноамериканки #2 через торрент бесплатно! Внесите свою лепту в развитие PiratBit!
    Комментировать посты могут только пользователи прошедшие не сложную регистрацию
    Показать сообщения:    

    Ужасные Латиноамериканки #2 через торрент
    Скачать бесплатно Ужасные Латиноамериканки #2
    Ужасные Латиноамериканки #2 скачать торрент
    Ужасные Латиноамериканки #2 смотреть онлайн
    Cкачать фильм Ужасные Латиноамериканки #2 бесплатно
    Ужасные Латиноамериканки #2 скачать торрент в хорошем качестве
    Ужасные Латиноамериканки #2 смотреть онлайн бесплатно в хорошем качестве


    Вы не можете начинать темы
    Вы не можете отвечать на сообщения
    Вы не можете редактировать свои сообщения
    Вы не можете удалять свои сообщения
    Вы не можете голосовать в опросах
    Вы не можете прикреплять файлы к сообщениям
    Вы можете скачивать файлы