1 сезон

1 сезон

iTunes

1

КиноПоиск HD

Кинопоиск HD

iTunes

13

1 сезон

RePack

30

Новинка

ВАЖНО

ИГРА 18+

pack

RePack

MK11
pack

Легкие деньги

RePack

jed

RePack

fifa19

RePack

RDR2

RePack

NEED FOR SPEED™ PAYBACK

4 сезон

9 сезон

Бесстыжие 9 сезон

Все сериалы

все сериалы на PB.wtf

RePack

FAR CRY 5
  
Magnet ссылка

Грозовой перевал / Cime tempestose (Фабрицио Коста) [2004 г., драма, DVDRip] pb.wtf

Грозовой перевал через торрент pb.wtf

Размер: 2.37 GB | Добавлен: 9 лет 6 мес. назад | Торрент скачан:245 раз
Скачать  

02-10-2011 09:56 Грозовой перевал Скачать торрент  

Грозовой перевал / Cime tempestose

Год выпуска: 2004
Страна: Италия
Жанр: драма
Продолжительность: 03:19:53, 2 серии (01:37:07 + 01:42:46)
Перевод: Профессиональный (многоголосый, закадровый)
Студия "Лексикон" по заказу "Синема-Престиж"

Режиссер: Фабрицио Коста / Fabrizio Costa

В ролях: Алессио Бони (Хитклиф), Анита Каприоли (Кэтрин), Франко Кастеллано (Айвори), Юрай Расла (Эдгар), Золи Винтер (Изабелла), Владимир Кратина (Эрншо), Франтишек Станек (Локвуд), Дана Вакова (Эллен), Лука Чианкетти (Хитклиф в детстве).

Описание: Фильм рассказывает одну из самых известных любовных историй всех времен, в центре которой – отчаянная и яростная страсть, доводящая до безумия…
Хитклиф – маленький цыган, которого подобрал и привел в свой дом богатый помещик Эрншо, – влюбляется в Кэтрин, дочь своего благодетеля. Их любви препятствуют социальное неравенство и враждебность брата Кэтрин – Айвори.

Скачать:Сэмпл



Качество: DVDRip
Формат: AVI
Видео кодек: XviD
Аудио кодек: AC3
Видео: 656x384 (1.71:1), 25 fps, XviD build 50 ~1551 kbps avg, 0.25 bit/pixel
Аудио: 48 kHz, AC3 Dolby Digital, 2/0 (L,R) ch, ~192 kbps
General
Complete name Грозовой перевал\Грозовой перевал .avi
Format : AVI
Format/Info : Audio Video Interleave
File size : 1.19 GiB
Duration : 1h 37mn
Overall bit rate : 1 753 Kbps
Movie name : Грозовой перевал / Cime tempestose (2004)
Writing application : VirtualDubMod 1.5.10.2 (build 2540/release)
Writing library : VirtualDubMod build 2540/release

Video
ID : 0
Format : MPEG-4 Visual
Format profile : Advanced Simple@L5
Format settings, BVOP : 2
Format settings, QPel : No
Format settings, GMC : No warppoints
Format settings, Matrix : Default (MPEG)
Codec ID : XVID
Codec ID/Hint : XviD
Duration : 1h 37mn
Bit rate : 1 552 Kbps
Width : 656 pixels
Height : 384 pixels
Display aspect ratio : 16:9
Frame rate : 25.000 fps
Color space : YUV
Chroma subsampling : 4:2:0
Bit depth : 8 bits
Scan type : Progressive
Compression mode : Lossy
Bits/(Pixel*Frame) : 0.246
Stream size : 1.05 GiB (88%)
Writing library : XviD 1.2.1 (UTC 2008-12-04)

Audio
ID : 1
Format : AC-3
Format/Info : Audio Coding 3
Mode extension : CM (complete main)
Codec ID : 2000
Duration : 1h 37mn
Bit rate mode : Constant
Bit rate : 192 Kbps
Channel(s) : 2 channels
Channel positions : Front: L R
Sampling rate : 48.0 KHz
Bit depth : 16 bits
Compression mode : Lossy
Stream size : 133 MiB (11%)
Alignment : Split accross interleaves
Interleave, duration : 40 ms (1.00 video frame)
Interleave, preload duration : 500 ms
Title : Профессиональный (многоголосый, закадровый) Домашний
pb.wtf



Скачать Грозовой перевал через торрент http://img217.imageshack.us/img217/481/16022001.jpg Скачать фильм Грозовой перевал через торрент бесплантно в хорошем качестве Описание: Фильм рассказывает одну из самых известных любовных историй всех времен, в центре которой – отчаянная и яростная страсть, ... 9.7 10 3
Info! Золотая раздача, скачанное не засчитывается.
Торрент: Зарегистрирован [2011-10-02 09:56] · скачан: 245 раз
Статус: √ проверено
Размер: 2.37 GB
Как cкачать? Как скачать Грозовой перевал через торрент | UTorrent

28-11-2019 20:33  

Отключить всю рекламу на сайте

    Дорогой пользователь! Огромная просьба, поблагодарите релизера, оцените раздачу и оставьте свои комментарий, если Вы скачали Грозовой перевал через торрент бесплатно! Внесите свою лепту в развитие PiratBit!
    Комментировать посты могут только пользователи прошедшие не сложную регистрацию
    Показать сообщения:    

    Грозовой перевал через торрент
    Скачать бесплатно Грозовой перевал
    Грозовой перевал скачать торрент
    Грозовой перевал смотреть онлайн
    Cкачать фильм Грозовой перевал бесплатно
    Грозовой перевал скачать торрент в хорошем качестве
    Грозовой перевал смотреть онлайн бесплатно в хорошем качестве


    Вы не можете начинать темы
    Вы не можете отвечать на сообщения
    Вы не можете редактировать свои сообщения
    Вы не можете удалять свои сообщения
    Вы не можете голосовать в опросах
    Вы не можете прикреплять файлы к сообщениям
    Вы можете скачивать файлы