Мега распродажа FORZA HORIZON 4 ULTIMATE+ВСЕ DLC+ОНЛАЙН всего за 499р. 349 руб. (супер цена). Внимание количество ограничено!!!

Лицензия

30

iTunes

мы

iTunes

1

1 сезон

Чернобыль

1 сезон

Ральф против интернета

MVO

Покемон. Детектив Пикачу

8 сезон

Игра престолов

iTunes

1+1

ИГРА 18+

pack

ВАЖНО

!!Акция!!

Alien_RageХит недели

RePack

Resident Evil 21
pack

RePack

Metro:Exodus

!!Акция!!

Alien_Rage

RePack

fifa19

RePack

Assassins Creed: Odyssey

RePack

NEED FOR SPEED™ PAYBACK

3 сезон

9 сезон

Бесстыжие 9 сезон

Все сериалы

все сериалы на PB.wtf

RePack

FAR CRY 5
Ребята, катастрофически не хватает 2730р. для оплаты серверов за МАЙ (всвязи с блокировками трафик упал в 3 раза), 1-2р., выручайте.
  

Сумеречная сеть / Beacon77 (Брэд Уотсон) [2009 г., ужасы, триллер, HDRip] pb.wtf

Сумеречная сеть через торрент pb.wtf

Размер: 1.65 GB | Добавлен: 7 лет 8 мес. назад | Торрент скачан:84 раза
Скачать  

02-10-2011 10:38 Сумеречная сеть Скачать торрент  

Сумеречная сеть / Beacon77

Год выпуска: 2009
Страна: Великобритания
Жанр: ужасы, триллер
Продолжительность: 01:35:24
Перевод: Профессиональный (многоголосый, закадровый)

Режиссер: Брэд Уотсон
Продюссер: Дженис Де Ла Мэр, Джордж Николас, Гари Филлипс
Сценарий: Дэбби Мун, Брэд Уотсон

Премьера в мире: 7 ноября 2009

Мировой рейтинг IMDB 5.20 (226)


В ролях: Келли Адамс, Джонатан Родс, Люси Эванс, Clyta Rainford, Дэвид Хортон, Кэти Мерфи, Вейн Леннокс, Джордж Никола, Крисс Тайлер, Саймон Томас

Описание: Прикованный к инвалидному креслу, Деклан посвятил все свое время созданию уникальной компьютерной технологии, которая могла бы поставить его на ноги. Работая на грани между наукой и черной магией, Деклану удается получить невероятный результат! Он получает не только возможность ходить, но и обретает сверхъестественное могущество. Опьяненный полученной силой, очень скоро Деклан теряет контроль над своими способностями и становится опасен для всего человечества...

Качество: HDRip
Формат: MKV
Видео кодек: H.26x
Аудио кодек: AC3
Видео: AVC, 1088x448 (2.40:1), 23.976 fps, 1 709 Kbps (0.146 bit/pixel)
Аудио: #1: AC-3, 48.0 KHz, 6 ch, 384 Kbps, CBR (Russian) #2: AC-3, 48.0 KHz, 6 ch, 384 Kbps, CBR (English)
Общее
Уникальный идентификатор : 246174782893983099819804445734689643256 (0xB93389E138A98A1796BA600DCD0D1AF8)
Полное имя : Sumerechnaya.Set'.2009.HDRip.x264.potroks.mkv
Формат : Matroska
Версия формата : Version 2
Размер файла : 1,65 Гбайт
Продолжительность : 1 ч. 35 м.
Общий поток : 2478 Кбит/сек
Название фильма : -=POTROKS=-
Дата кодирования : UTC 2011-09-13 15:43:24
Программа кодирования : mkvmerge v4.9.1 ('Ich will') сборка от Jul 11 2011 23:53:15
Библиотека кодирования : libebml v1.2.1 + libmatroska v1.1.1

Видео
Идентификатор : 1
Формат : AVC
Формат/Информация : Advanced Video Codec
Профиль формата : High@L4.1
Параметр CABAC формата : Да
Параметр ReFrames формата : 11 кадров
Идентификатор кодека : V_MPEG4/ISO/AVC
Продолжительность : 1 ч. 35 м.
Битрейт : 1709 Кбит/сек
Ширина : 1088 пикселей
Высота : 448 пикселей
Соотношение сторон : 2,40:1
Режим частоты кадров : Переменный
Частота кадров : 23,976 кадра/сек
Цветовое пространство : YUV
Субдискретизация насыщенности : 4:2:0
Битовая глубина : 8 бит
Тип развёртки : Прогрессивная
Бит/(Пиксели*Кадры) : 0.146
Размер потока : 1,11 Гбайт (67%)
Библиотека кодирования : x264 core 116 r2019M 9cc407d

Аудио #1
Идентификатор : 2
Формат : AC-3
Формат/Информация : Audio Coding 3
Расширение режима : CM (complete main)
Идентификатор кодека : A_AC3
Продолжительность : 1 ч. 35 м.
Вид битрейта : Постоянный
Битрейт : 384 Кбит/сек
Каналы : 6 каналов
Расположение каналов : Front: L C R, Side: L R, LFE
Частота : 48,0 КГц
Битовая глубина : 16 бит
Метод сжатия : С потерями
Размер потока : 262 Мбайт (15%)
Заголовок : MVO |Лицензия|
Язык : Russian

Аудио #2
Идентификатор : 3
Формат : AC-3
Формат/Информация : Audio Coding 3
Расширение режима : CM (complete main)
Идентификатор кодека : A_AC3
Продолжительность : 1 ч. 35 м.
Вид битрейта : Постоянный
Битрейт : 384 Кбит/сек
Каналы : 6 каналов
Расположение каналов : Front: L C R, Side: L R, LFE
Частота : 48,0 КГц
Битовая глубина : 16 бит
Метод сжатия : С потерями
Размер потока : 262 Мбайт (15%)
Заголовок : Оригинал
Язык : English




pb.wtf



Скачать Сумеречная сеть через торрент http://i29.fastpic.ru/big/2011/1002/32/6a5b196296700279e829e82f7ff80332.jpg Скачать фильм Сумеречная сеть через торрент бесплантно в хорошем качестве Описание: Прикованный к инвалидному креслу, Деклан посвятил все свое время созданию уникальной компьютерной технологии, которая могла ... 4.8 10 6
Info! Золотая раздача, скачанное не засчитывается.
Торрент: Зарегистрирован [2011-10-02 10:38] · скачан: 84 раз
Статус: √ проверено
Размер: 1.65 GB
Как cкачать? Как скачать Сумеречная сеть через торрент | qTorrent

% Раздел Тема Автор DL S | L
Фильмы [HD 720p, 1080p] (Хороший звук DUB, MVO) [ 12.32 GB ] Сумеречная Сеть / Beacon77 [2009 BDRip ] Flint3 Скачать
1 | 0
Фильмы 2009 [ 1.37 GB ] Сумеречная сеть / Beacon77 [2009 DVDRip лицензия] coc900 Скачать
1 | 0
Фильмы (DVD фильмы) [ 4.16 GB ] Сумеречная Сеть / Beacon77 [2009 DVD5] R5 «Lizard Cinema Trade» voovaz Скачать
1 | 0
Фильмы 2009 [ 744 MB ] Сумеречная сеть / Beacon77 [2009 HDRip] MVO -=Cherry=- Скачать
1 | 0


>> Регистрируемся здесь <<






Отзывы и комментарии о схеме читаем и пишем здесь: ---> Отзывы и комментарии о схеме

Новые благодарочки в телеграм довольных пользователей:
скриншот   скриншот   скриншот   скриншот   скриншот
    Дорогой пользователь! Огромная просьба, поблагодарите релизера, оцените раздачу и оставьте свои комментарий, если Вы скачали Сумеречная сеть через торрент бесплатно! Внесите свою лепту в развитие PiratBit!
    Комментировать посты могут только пользователи прошедшие не сложную регистрацию
    Показать сообщения:    

    Сумеречная сеть через торрент
    Скачать бесплатно Сумеречная сеть
    Сумеречная сеть скачать торрент
    Сумеречная сеть смотреть онлайн
    Cкачать фильм Сумеречная сеть бесплатно
    Сумеречная сеть скачать торрент в хорошем качестве
    Сумеречная сеть смотреть онлайн бесплатно в хорошем качестве


    Вы не можете начинать темы
    Вы не можете отвечать на сообщения
    Вы не можете редактировать свои сообщения
    Вы не можете удалять свои сообщения
    Вы не можете голосовать в опросах
    Вы не можете прикреплять файлы к сообщениям
    Вы можете скачивать файлы