новый адрес
Ссылка на приватное зеркало всего за 1$. Внимание количество ограничено!!!

iTunes

1+1

iTunes

мы

WEB-DL

1

iTunes

Чернобыль

iTunes

Ральф против интернета

Лицензия

ПШазам

Лицензия

Оно 2

Лицензия

30
pack

Вам бонус

ВАЖНО

!!Акция!!

Alien_RageХит недели

RePack

Resident Evil 21

ИГРА 18+

pack

RePack

jed

!!Акция!!

Alien_Rage

RePack

fifa19

RePack

Assassins Creed: Odyssey

RePack

NEED FOR SPEED™ PAYBACK

3 сезон

9 сезон

Бесстыжие 9 сезон

Все сериалы

все сериалы на PB.wtf

RePack

FAR CRY 5
Ребята, катастрофически не хватает 1900р. для оплаты серверов за Октябрь (всвязи с блокировками трафик упал в 3 раза), 1-2р., выручайте.
  

Тринадцать убийц / 13 assassins (Такаси Миикэ) [2010, Япония, Великобритания, боевик, драма, приключения, BDRip 720p] MVO [BBC Saint-Petersburg] + original pb.wtf

Тринадцать убийц через торрент pb.wtf

Размер: 6.97 GB | Добавлен: 8 лет 2 мес. назад | Торрент скачан:387 раз
Скачать  

02-10-2011 14:47 Тринадцать убийц Скачать торрент  

Тринадцать убийц / 13 assassins / Jыsan-nin no shikaku Страна: Япония, Великобритания
Студия: Asahi Broadcasting Corporation (ABC), Recorded Picture Company (RPC)
Жанр: боевик, драма, приключения
Год выпуска: 2010
Продолжительность: 02:21:51

Перевод: Профессиональный (многоголосый закадровый) [BBC Saint-Petersburg]

Режиссер: Такаси Миикэ / Takashi Miike

В ролях: Кодзи Якусё, Такаюки Ямада, Юсуке Исейа, Горо Инагаки, Микидзиро Хира, Хироки Мацуката, Икки Савамура, Арата Фурута, Цуеши Ихара

Описание: Действие ленты помещено в эпоху сегунов, а расскажет картина о тайной миссии неких 13 убийц уничтожить злого правителя, выполнить которую оказывается не так-то просто, поскольку численность телохранителей этого злодея в десять раз превосходит количество людей, покушающихся на его жизнь.



СЕМПЛ
Тип релиза: BDRip 720p
Контейнер: MKV
Видео: MPEG4 Video (H264) 1280x534 (427:178) 4950 kb/s 23.976 fps
Аудио 1: Dolby AC3 48.0 KHz (6ch) 448 kb/s 5.1 MVO BBC Saint-Petersburg
Аудио 2: DTS, 48.0 KHz (6 ch) 1510 kb/s 5.1 Japanese
General
Unique ID : 245445205851612695835733352852230429178 (0xB8A706F452FCF661BC41468657C2D9FA)
Format : Matroska
Format version : Version 2
File size : 6.97 GiB
Duration : 2h 21mn
Overall bit rate : 7 039 Kbps
Encoded date : UTC 2011-10-01 13:04:11
Writing application : mkvmerge v3.4.0 ('Rapunzel') сборка от May 15 2010 09:38:20
Writing library : libebml v0.8.0 + libmatroska v0.9.0
Video
ID : 1
Format : AVC
Format/Info : Advanced Video Codec
Format profile : High@L4.1
Format settings, CABAC : Yes
Format settings, ReFrames : 12 frames
Codec ID : V_MPEG4/ISO/AVC
Duration : 2h 21mn
Bit rate : 5 082 Kbps
Width : 1 280 pixels
Height : 534 pixels
Display aspect ratio : 2.40:1
Original display aspect ratio : 2.40:1
Frame rate mode : Constant
Frame rate : 23.976 fps
Color space : YUV
Chroma subsampling : 4:2:0
Bit depth : 8 bits
Scan type : Progressive
Bits/(Pixel*Frame) : 0.310
Stream size : 4.90 GiB (70%)
Title : 13.Assassins.2010.BluRay.720p.DTS.x264-CHD
Writing library : x264 core 115 r1947+532 361db68
Encoding settings : cabac=1 / ref=12 / deblock=1:-3:-3 / analyse=0x3:0x113 / me=umh / subme=9 / psy=1 / fade_compensate=0.00 / psy_rd=1.05:0.10 / mixed_ref=1 / me_range=32 / chroma_me=1 / trellis=2 / 8x8dct=1 / cqm=2 / deadzone=21,11 / fast_pskip=0 / chroma_qp_offset=-2 / threads=12 / sliced_threads=0 / nr=0 / decimate=1 / interlaced=0 / bluray_compat=0 / constrained_intra=0 / fgo=0 / bframes=6 / b_pyramid=2 / b_adapt=2 / b_bias=0 / direct=3 / weightb=1 / open_gop=0 / weightp=2 / keyint=250 / keyint_min=23 / scenecut=40 / intra_refresh=0 / rc_lookahead=40 / rc=2pass / mbtree=1 / bitrate=5082 / ratetol=1.0 / qcomp=0.60 / qpmin=1 / qpmax=63 / qpstep=4 / cplxblur=20.0 / qblur=0.5 / vbv_maxrate=40000 / vbv_bufsize=30000 / nal_hrd=none / ip_ratio=1.40 / aq=1:0.80
Language : Japanese
Audio #1
ID : 2
Format : AC-3
Format/Info : Audio Coding 3
Mode extension : CM (complete main)
Codec ID : A_AC3
Duration : 2h 21mn
Bit rate mode : Constant
Bit rate : 448 Kbps
Channel(s) : 6 channels
Channel positions : Front: L C R, Side: L R, LFE
Sampling rate : 48.0 KHz
Bit depth : 16 bits
Compression mode : Lossy
Stream size : 455 MiB (6%)
Title : AC3 @ 448 kbs 5.1 DVO BBC Saint-Petersburg
Language : Russian
Audio #2
ID : 3
Format : DTS
Format/Info : Digital Theater Systems
Codec ID : A_DTS
Duration : 2h 21mn
Bit rate mode : Constant
Bit rate : 1 510 Kbps
Channel(s) : 6 channels
Channel positions : Front: L C R, Side: L R, LFE
Sampling rate : 48.0 KHz
Bit depth : 24 bits
Compression mode : Lossy
Stream size : 1.50 GiB (21%)
Title : DTS @ 1510 kbs 5.1
Language : Japanese
скриншот  скриншот  скриншот  скриншот  pb.wtf



Скачать Тринадцать убийц через торрент http://i30.fastpic.ru/big/2011/1001/a9/b77d5ad996857ed5fb718ddad609a7a9.png Скачать фильм Тринадцать убийц через торрент бесплантно в хорошем качестве Описание: Действие ленты помещено в эпоху сегунов, а расскажет картина о тайной миссии неких 13 убийц уничтожить злого правителя, выполнить ... 10 10 2
Info! Золотая раздача, скачанное не засчитывается.
Торрент: Зарегистрирован [2011-10-02 14:47] · скачан: 387 раз
Статус: √ проверено
Размер: 6.97 GB
Как cкачать? Как скачать Тринадцать убийц через торрент | qTorrent

28-11-2019 20:33  

Отключить всю рекламу на сайте

02-10-2011 16:57 Тринадцать убийц Скачать торрент  

DEVI СПАСИБО!!!pb.wtf



22-02-2012 22:37 Тринадцать убийц Скачать торрент  

достойное киноpb.wtf



    Дорогой пользователь! Огромная просьба, поблагодарите релизера, оцените раздачу и оставьте свои комментарий, если Вы скачали Тринадцать убийц через торрент бесплатно! Внесите свою лепту в развитие PiratBit!
    Комментировать посты могут только пользователи прошедшие не сложную регистрацию
    Показать сообщения:    

    Тринадцать убийц через торрент
    Скачать бесплатно Тринадцать убийц
    Тринадцать убийц скачать торрент
    Тринадцать убийц смотреть онлайн
    Cкачать фильм Тринадцать убийц бесплатно
    Тринадцать убийц скачать торрент в хорошем качестве
    Тринадцать убийц смотреть онлайн бесплатно в хорошем качестве


    Вы не можете начинать темы
    Вы не можете отвечать на сообщения
    Вы не можете редактировать свои сообщения
    Вы не можете удалять свои сообщения
    Вы не можете голосовать в опросах
    Вы не можете прикреплять файлы к сообщениям
    Вы можете скачивать файлы