Ссылка на приватное зеркало нашего сайта всего за 1$. Внимание количество ограничено!!!

2 сезон

iTunes

1 сезон

1

iTunes

iTunes

iTunes

1 сезон

RePack

30

ИГРА 18+

pack

ВАЖНО

!!Акция!!

Alien_RageХит недели

RePack

MK11
pack

Забери бонус

RePack

jed

!!Акция!!

Alien_Rage

RePack

fifa19

RePack

Assassins Creed: Odyssey

RePack

NEED FOR SPEED™ PAYBACK

4 сезон

9 сезон

Бесстыжие 9 сезон

Все сериалы

все сериалы на PB.wtf

RePack

FAR CRY 5
  

Ночь демонов / Night of the Demons (Адам Гираш / Adam Gierasch) [2009 г., Ужасы, BDRip (720p)] pb.wtf

Ночь демонов через торрент pb.wtf

Размер: 5.63 GB | Добавлен: 9 лет назад | Торрент скачан:71 раз
Скачать  

04-10-2011 16:29 Ночь демонов Скачать торрент  

Ночь демонов / Night of the Demons

Жанр: Ужасы
Страна: США, Cold Fusion Media Group
Продолжительность: 01:32:55
Год: 2009
Перевод 1:Авторский (одноголосый закадровый) zamez
Перевод 2: двухголосый (закадровый) RelizLab

Русские субтитры: русские (Userman4ik), английские
Режиссер: Адам Гираш / Adam Gierasch
В ролях: Эдвард Ферлонг, Шеннон Элизабет, Моника Кина, Бобби Сью Лютер, Джон Бич, Майкл Копон, Тиффани Шепис, Эрик Ф. Адамс, Майкл Арата
Описание: Фабула ленты практически неотличима от исходной постановки: в пользующемся дурной славой особняке Бруссаров, где восемь лет назад бесследно исчезло шесть человек, а прознавшая об этом хозяйка покончила с собой, Мэдди Кертис, Лилли, Сюзанна и Анжела устраивают вечеринку, на которую заявляются их бывшие дружки Колин и Декс. После того, как шумных гостей увозит полиция, ребята обнаруживают, что их телефоны не работают, ворота поместья заперты и какая-то сверхъестественная сила удерживает их в особняке.



Качество: BDRip 720p (AVCHD)
Формат: MKV
Видео кодек: x264
Аудио кодек: DTS, AC3
Видео: 1280 x 720; 23,976 fps; 5 212 Kbps
Аудио1: Русский, DTS 5.1 1510 Kbps 48,0 КГц(Zamez)
Аудио2: Русский, AC3 5.1 448 Kbps 48,0 КГц(Двухголосый)
Аудио3: English, DTS 5.1 1510 Kbps 48,0 КГц(Оригинал)
Субтитры: softsub (SRT)
H:\Night.Of.The.Demons.2009.720p.BDRip.2xRus.Eng.mkv
General
Complete name : H:\Night.Of.The.Demons.2009.720p.BDRip.2xRus.Eng.mkv
Format : Matroska
File size : 5.63 GiB
Duration : 1h 32mn
Overall bit rate : 8 680 Kbps
Encoded date : UTC 2010-11-06 09:49:50
Writing application : mkvmerge v2.9.8 ('C'est le bon') built on Aug 13 2009 12:49:06
Writing library : libebml v0.7.7 + libmatroska v0.8.1
Video #1
ID : 1
Format : AVC
Format/Info : Advanced Video Codec
Format profile : High@L4.1
Format settings, CABAC : Yes
Format settings, ReFrames : 5 frames
Muxing mode : Container profile=Unknown@4.1
Codec ID : V_MPEG4/ISO/AVC
Duration : 1h 32mn
Bit rate : 5 040 Kbps
Nominal bit rate : 5 212 Kbps
Width : 1 280 pixels
Height : 720 pixels
Display aspect ratio : 16:9
Frame rate : 23.976 fps
Resolution : 8 bits
Colorimetry : 4:2:0
Scan type : Progressive
Bits/(Pixel*Frame) : 0.228
Stream size : 3.27 GiB (58%)
Writing library : x264 core 105 r1724 b02df7b
Encoding settings : cabac=1 / ref=5 / deblock=1:0:0 / analyse=0x3:0x133 / me=umh / subme=7 / psy=1 / psy_rd=1.00:0.00 / mixed_ref=1 / me_range=16 / chroma_me=1 / trellis=1 / 8x8dct=1 / cqm=0 / deadzone=21,11 / fast_pskip=0 / chroma_qp_offset=-2 / threads=12 / sliced_threads=0 / nr=0 / decimate=1 / interlaced=0 / constrained_intra=0 / bframes=3 / b_pyramid=2 / b_adapt=1 / b_bias=0 / direct=1 / weightb=1 / open_gop=0 / weightp=2 / keyint=250 / keyint_min=23 / scenecut=40 / intra_refresh=0 / rc_lookahead=40 / rc=2pass / mbtree=1 / bitrate=5212 / ratetol=1.0 / qcomp=0.60 / qpmin=10 / qpmax=51 / qpstep=4 / cplxblur=20.0 / qblur=0.5 / ip_ratio=1.40 / aq=1:1.00
Language : English
Audio #2
ID : 2
Format : DTS
Format/Info : Digital Theater Systems
Codec ID : A_DTS
Duration : 1h 32mn
Bit rate mode : Constant
Bit rate : 1 510 Kbps
Channel(s) : 6 channels
Channel positions : Front: L C R, Side: L R, LFE
Sampling rate : 48.0 KHz
Resolution : 24 bits
Stream size : 1 004 MiB (17%)
Title : Zames DTS 5.1 1510 kbps
Language : Russian
Audio #3
ID : 3
Format : AC-3
Format/Info : Audio Coding 3
Format_Settings_ModeExtension : CM (complete main)
Codec ID : A_AC3
Duration : 1h 32mn
Bit rate mode : Constant
Bit rate : 448 Kbps
Channel(s) : 6 channels
Channel positions : Front: L C R, Side: L R, LFE
Sampling rate : 48.0 KHz
Stream size : 298 MiB (5%)
Title : DVO AC3 5.1 448 kbps
Language : Russian
Audio #4
ID : 4
Format : DTS
Format/Info : Digital Theater Systems
Codec ID : A_DTS
Duration : 1h 32mn
Bit rate mode : Constant
Bit rate : 1 510 Kbps
Channel(s) : 6 channels
Channel positions : Front: L C R, Side: L R, LFE
Sampling rate : 48.0 KHz
Resolution : 24 bits
Stream size : 1 004 MiB (17%)
Title : Original DTS 5.1 1510 kbps
Language : English
Text #5
ID : 5
Format : UTF-8
Codec ID : S_TEXT/UTF8
Codec ID/Info : UTF-8 Plain Text
Title : Userman4ik
Language : Russian
Text #6
ID : 6
Format : UTF-8
Codec ID : S_TEXT/UTF8
Codec ID/Info : UTF-8 Plain Text
Language : English
http://multi-up.com/370078
pb.wtf



Скачать Ночь демонов через торрент http://i11.fastpic.ru/big/2010/1106/29/52a9f4a59ecd030a300e30505c9edd29.png Скачать фильм Ночь демонов через торрент бесплантно в хорошем качестве Описание: Фабула ленты практически неотличима от исходной постановки: в пользующемся дурной славой особняке Бруссаров, где восемь лет назад ... 4.6 10 5
Info! Золотая раздача, скачанное не засчитывается.
Торрент: Зарегистрирован [2011-10-04 16:29] · скачан: 71 раз
Статус: √ проверено
Размер: 5.63 GB
Как cкачать? Как скачать Ночь демонов через торрент | qTorrent

% Раздел Тема Автор DL S | L
Фильмы с авторской озвучкой [ 6.09 GB ] Ночь демонов / Night Of The Demons [1988 BDRip 720p] 3xAVO Леонид Ильич Скачать
1 | 0
Фильмы с авторской озвучкой [ 699 MB ] Ночь демонов / Night of the Demons [2009 DVDRip] AVO -=Cherry=- Скачать
1 | 0
Фильмы до 2000 г. [ 1.46 GB ] Ночь демонов / Night of the Demons [1988 DVDRip] feldeger Скачать
1 | 0
Фильмы до 2000 г. [ 1.37 GB ] Ночь демонов 3 / Night of the Demons III [1997 DVDRip] Termit234 Скачать
1 | 0
Фильмы до 2000 г. [ 699 MB ] Ночь демонов 2 / Night of the Demons 2 [1994 DVDRip] Termit234 Скачать
1 | 0
Фильмы до 2000 г. [ 690 MB ] Ночь демонов / Night of the Demons [1988 DVDRip] Termit234 Скачать
1 | 0

28-11-2019 20:33  

Отключить всю рекламу на сайте

    Дорогой пользователь! Огромная просьба, поблагодарите релизера, оцените раздачу и оставьте свои комментарий, если Вы скачали Ночь демонов через торрент бесплатно! Внесите свою лепту в развитие PiratBit!
    Комментировать посты могут только пользователи прошедшие не сложную регистрацию
    Показать сообщения:    

    Ночь демонов через торрент
    Скачать бесплатно Ночь демонов
    Ночь демонов скачать торрент
    Ночь демонов смотреть онлайн
    Cкачать фильм Ночь демонов бесплатно
    Ночь демонов скачать торрент в хорошем качестве
    Ночь демонов смотреть онлайн бесплатно в хорошем качестве


    Вы не можете начинать темы
    Вы не можете отвечать на сообщения
    Вы не можете редактировать свои сообщения
    Вы не можете удалять свои сообщения
    Вы не можете голосовать в опросах
    Вы не можете прикреплять файлы к сообщениям
    Вы можете скачивать файлы