Всегда рабочее зеркало без VPN и Proxy просто перед .vidak.icu напиши любое слово или цифру, Пример http://s1nj.vidak.icu

MVO

2 сезон

1 сезон

1

1 сезон

iTunes

2 сезон

13

1 сезон

Deluxe

pack

Рекомендуем

Пиратка

30

ВАЖНО

RePack

MK11

RePack

jed

RePack

fifa19

RePack

RDR2

RePack

NEED FOR SPEED™ PAYBACK

Кинопоиск HD

6 сезон

 Острые козырьки 6 сезон

Все сериалы

все сериалы на PB.wtf

RePack

FAR CRY 5

Anonymous, нам критически не хватает 5601 руб. на оплату серверов и переферии за Апрель, помоги нам пожалуйста, вся надежда только на тебя. В благодарность мы отключим тебе всю рекламу на сайте!

×
  
Magnet ссылка

Чудаки 3D / Jackass 3D (Джефф Треймейн) [2010 г., документальный, комедия, HDRip]Anaglyph / Анаглиф pb.wtf

Чудаки 3D через торрент pb.wtf

Качают: 1 [ 0 KB/s ]
Размер: 1.47 GB | Добавлен: 10 лет назад | Торрент скачан:387 раз
Смотреть онлайн Чудаки 3D | Скачать    Ребята, помогите собрать деньги на оплату серверов!!!

04-10-2011 19:53 Чудаки 3D Скачать торрент  

Чудаки 3D / Jackass 3D

Год выпуска: 2010
Страна: США, Румыния
Жанр: документальный, комедия
Продолжительность: 01:34:04
Перевод: Профессиональный (полное дублирование)

Режиссер: Джефф Треймейн
Продюссер: Джефф Треймейн, Спайк Джонз, Джонни Ноксвил
Сценарий: Престон Лэси

Бюджет: $20 000 000

R
-Лицам до 17 лет обязательно присутствие взрослого
Мировой рейтинг IMDB 7.10 (20 571)


В ролях: Джонни Ноксвил, Бэм Марджера, Райан Данн, Стив-О, Джейсон Акуна, Престон Лэси, Крис Понтиус, Эрен МакГехи, Дэйв Инглэнд, Лумис Фо

Описание: Скандальная, саркастическая, грубая и абсолютно сумасбродная команда Джонни Ноксвила опять готова шокировать, смешить и срывать крышу, и в этот раз они удивят еще больше. Теперь каждый может стать почти соучастником событий, поскольку наблюдать за выходками чудаков можно будет в формате 3D. Фильм состоит из ряда экстремальных трюков, нерядовых шуток и безумных экспериментов, — все это испытает на собственной шкуре эта безумная компания. Никогда не знаешь — плакать или смеяться от их выходок, ведь они демонстрируют то, что каждый тайком хотел сделать, но боялся попробовать.

Доп. информация: Для просмотра 3D требуются анаглифные очки

Сэмпл: http://multi-up.com/488407

Качество: HDRip
Формат: AVI
Видео кодек: XviD
Аудио кодек: AC3
Видео: 720*416, 16:9, 23.976 fps, 1778 Кбит/с, 720x416
Аудио: Русский / AC3, 6 ch, 448 Кбит/с
[General
Complete name : \\MISHGANBOOK\Download\torrents\Chudaki.3D.2010.XviD.DVDRip.Kinoarena.avi
Format : AVI
Format/Info : Audio Video Interleave
File size : 1.47 GiB
Duration : 1h 34mn
Overall bit rate : 2 236 Kbps
Writing application : Nandub v1.0rc2
Writing library : Nandub build 1853/release

Video
ID : 0
Format : MPEG-4 Visual
Format profile : AdvancedSimple@L5
Format settings, BVOP : Yes
Format settings, QPel : No
Format settings, GMC : No warppoints
Format settings, Matrix : Custom
Codec ID : XVID
Codec ID/Hint : XviD
Duration : 1h 34mn
Bit rate : 1 779 Kbps
Width : 720 pixels
Height : 416 pixels
Display aspect ratio : 16:9
Frame rate : 23.976 fps
Resolution : 24 bits
Colorimetry : 4:2:0
Scan type : Progressive
Bits/(Pixel*Frame) : 0.248
Stream size : 1.17 GiB (80%)
Writing library : XviD 1.2.1 (UTC 2008-12-04)

Audio
ID : 1
Format : AC-3
Format/Info : Audio Coding 3
Codec ID : 2000
Duration : 1h 34mn
Bit rate mode : Constant
Bit rate : 448 Kbps
Channel(s) : 6 channels
Channel positions : Front: L C R, Surround: L R, LFE
Sampling rate : 48.0 KHz
Video delay : 12s 100ms
Stream size : 301 MiB (20%)
Alignment : Split accross interleaves
Interleave, duration : 42 ms (1.00 video frame)
Interleave, preload duration : 500 ms]



pb.wtf



Скачать Чудаки 3D через торрент http://i27.fastpic.ru/big/2011/1004/d3/f4fd8f0075fcbe7699db00a6ab08cbd3.jpg Скачать, смотреть онлайн Чудаки 3D бесплантно в хорошем качестве Описание: Скандальная, саркастическая, грубая и абсолютно сумасбродная команда Джонни Ноксвила опять готова шокировать, смешить и срывать ... 10 10 2
Info! Золотая раздача, скачанное не засчитывается.
Торрент: Зарегистрирован [2011-10-04 19:53] · скачан: 387 раз
Статус: √ проверено
Размер: 1.47 GB
Как cкачать? Как скачать Чудаки 3D через торрент | UTorrent

% Раздел Тема Автор DL S | L
3D Фильмы [ 7.52 GB ] Чудаки 3Д / Jackass 3D / Анаглифика/ Anaglyph / Jackass 3D [2010 документальный HDTV лицензия] JoySmoke Скачать
1 | 0

28-11-2019 20:33  

Отключить всю рекламу на сайте

    Дорогой пользователь! Огромная просьба, поблагодарите релизера, оцените раздачу и оставьте свои комментарий, если Вы скачали Чудаки 3D через торрент бесплатно!
    Комментировать посты могут только пользователи прошедшие не сложную регистрацию
    Показать сообщения:    

    Чудаки 3D через торрент
    Скачать бесплатно Чудаки 3D
    Чудаки 3D скачать торрент
    Чудаки 3D смотреть онлайн
    Cкачать фильм Чудаки 3D бесплатно
    Чудаки 3D скачать торрент в хорошем качестве
    Чудаки 3D смотреть онлайн бесплатно в хорошем качестве


    Вы не можете начинать темы
    Вы не можете отвечать на сообщения
    Вы не можете редактировать свои сообщения
    Вы не можете удалять свои сообщения
    Вы не можете голосовать в опросах
    Вы не можете прикреплять файлы к сообщениям
    Вы можете скачивать файлы