Ссылка на приватное зеркало нашего сайта всего за 1$. Внимание количество ограничено!!!

2 сезон

iTunes

1 сезон

1

iTunes

iTunes

iTunes

1 сезон

RePack

30

ИГРА 18+

pack

ВАЖНО

!!Акция!!

Alien_RageХит недели

RePack

MK11
pack

Забери бонус

RePack

jed

!!Акция!!

Alien_Rage

RePack

fifa19

RePack

Assassins Creed: Odyssey

RePack

NEED FOR SPEED™ PAYBACK

4 сезон

9 сезон

Бесстыжие 9 сезон

Все сериалы

все сериалы на PB.wtf

RePack

FAR CRY 5
  

Орел Девятого легиона / The Eagle (Кевин МакДональд) [2011 г., драма, история, BDRip 1080p, Дубляж, Лицензия] pb.wtf

Орел Девятого легиона через торрент pb.wtf

Размер: 14.34 GB | Добавлен: 2 года 7 мес. назад | Торрент скачан:69 раз
Скачать  

05-10-2011 11:49 Орел Девятого легиона Скачать торрент  

Орел Девятого легиона / The Eagle

Год выпуска: 2011
Страна: США
Жанр: драма, история
Продолжительность: 01:55:03
Перевод: Профессиональный (полное дублирование)

Режиссер: Кевин МакДональд

В ролях: Ченнинг Татум, Джейми Белл, Дональд Сазерленд, Марк Стронг, Дэкин Мэтьюз, Истван Гёз, Дэнис О’Харе, Пол Риттер, Жолт Ласло

Описание: II век нашей эры. Молодой центурион Маркус Акила прибывает из Рима на Британские острова, и отправляется в горы Шотландии на поиски пропавшего 20 лет назад легендарного Девятого легиона, которым командовал его отец Дикие племена и непредсказуемые опасности стоят на пути героя, но он во чтобы то ни стало должен найти след римских воинов и спасти главный символ легиона Орла Девяти.

Качество: BDRip 1080p
Формат: MKV
Видео кодек: AVC
Аудио кодек: DTS
Видео: 16.5 Мбит/с, 1920x816, 23.976 кадр/с
Аудио: Русский (DTS, 6 ch, 1509 Кбит/сек, 48.0 KHz)
Общее
Уникальный идентификатор : 199980264762530895551888038828082106156 (0x9672CC4AFD92F6318863309A6A328F2C)
Полное имя : E:\Orel.Devjatogo.legiona.2011.x264.BDRip(1080p)-Kinozal.mkv
Формат : Matroska
Версия формата : Version 2
Размер файла : 14,3 Гбайт
Продолжительность : 1 ч. 55 м.
Общий поток : 17,8 Мбит/сек
Дата кодирования : UTC 2011-05-10 15:12:34
Программа кодирования : mkvmerge v4.7.0 ('Just Like You Imagined') сборка от Apr 21 2011 01:13:14
Библиотека кодирования : libebml v1.2.0 + libmatroska v1.1.0

Видео
Идентификатор : 1
Формат : AVC
Формат/Информация : Advanced Video Codec
Профиль формата : High@L4.1
Настройки формата : CABAC / 5 Ref Frames
Параметр CABAC формата : Да
Параметр RefFrames формата : 5 кадров
Идентификатор кодека : V_MPEG4/ISO/AVC
Продолжительность : 1 ч. 55 м.
Битрейт : 16,5 Мбит/сек
Ширина : 1920 пикселей
Высота : 816 пикселей
Соотношение сторон : 2,35:1
Режим частоты кадров : Постоянный
Частота кадров : 23,976 (24000/1001) кадра/сек
Цветовое пространство : YUV
Субдискретизация насыщенности : 4:2:0
Битовая глубина : 8 бит
Тип развёртки : Прогрессивная
Бит/(Пиксели*Кадры) : 0.439
Размер потока : 12,8 Гбайт (90%)
Библиотека кодирования : x264 core 114 r1924 08d04a4
Настройки программы : cabac=1 / ref=5 / deblock=1:-3:-3 / analyse=0x3:0x133 / me=umh / subme=10 / psy=1 / psy_rd=1.05:0.10 / mixed_ref=1 / me_range=64 / chroma_me=1 / trellis=2 / 8x8dct=1 / cqm=0 / deadzone=21,11 / fast_pskip=1 / chroma_qp_offset=-3 / threads=9 / sliced_threads=0 / nr=0 / decimate=1 / interlaced=0 / constrained_intra=0 / bframes=12 / b_pyramid=2 / b_adapt=2 / b_bias=0 / direct=3 / weightb=1 / open_gop=0 / weightp=2 / keyint=250 / keyint_min=23 / scenecut=40 / intra_refresh=0 / rc_lookahead=60 / rc=2pass / mbtree=1 / bitrate=16476 / ratetol=1.0 / qcomp=0.70 / qpmin=0 / qpmax=69 / qpstep=4 / cplxblur=20.0 / qblur=0.5 / vbv_maxrate=50000 / vbv_bufsize=62500 / nal_hrd=none / ip_ratio=1.40 / aq=1:0.90
Default : Нет
Forced : Нет

Аудио
Идентификатор : 2
Формат : DTS
Формат/Информация : Digital Theater Systems
Идентификатор кодека : A_DTS
Продолжительность : 1 ч. 55 м.
Вид битрейта : Постоянный
Битрейт : 1509 Кбит/сек
Каналы : 6 каналов
Расположение каналов : Front: L C R, Side: L R, LFE
Частота : 48,0 КГц
Частота кадров : 93,750 кадра/сек (512 SPF)
Битовая глубина : 16 бит
Метод сжатия : С потерями
Размер потока : 1,21 Гбайт (8%)
Язык : Russian
Default : Да
Forced : Да

Текст
Идентификатор : 3
Формат : UTF-8
Идентификатор кодека : S_TEXT/UTF8
Идентификатор кодека/Информация : UTF-8 Plain Text
Язык : Russian
Default : Нет
Forced : Нет
pb.wtf



Скачать Орел Девятого легиона через торрент http://i29.fastpic.ru/big/2011/1005/b7/8b5daae64ba7bade73ff3e2d6c84efb7.jpg Скачать фильм Орел Девятого легиона через торрент бесплантно в хорошем качестве Описание: II век нашей эры. Молодой центурион Маркус Акила прибывает из Рима на Британские острова, и отправляется в горы Шотландии на ... 7 10 6
Info! Золотая раздача, скачанное не засчитывается.
Торрент: Зарегистрирован [2018-02-24 16:58] · скачан: 69 раз
Статус: √ проверено
Размер: 14.34 GB
Как cкачать? Как скачать Орел Девятого легиона через торрент | qTorrent

% Раздел Тема Автор DL S | L
Фильмы 2011 [ 745 MB ] Орел Девятого легиона / Eagle The [2011 история HDRip] ACFIORENTINA Скачать
1 | 0
Фильмы 2011 [ 1.37 GB ] Орел Девятого легиона / The Eagle [2011 история DVDRip лицензия] SD Скачать
1 | 0
Фильмы [HD 720p, 1080p] (Хороший звук DUB, MVO) [ 7.1 GB ] Орел Девятого легиона / The Eagle [2011 история BDRip 720p ] [Расширенная версия] Ke$h@ Скачать
1 | 0
Фильмы (Blu-ray, BD-Remux, HDDVD) [ 32.85 GB ] Орел Девятого легиона / The Eagle [2011 история Blu-Ray] shuller Скачать
1 | 0
Фильмы 2011 [ 2.24 GB ] Орел Девятого легиона / Eagle The [2011 история BDRip лицензия] ACFIORENTINA Скачать
1 | 0
Фильмы [HD 720p, 1080p] (Хороший звук DUB, MVO) [ 10.7 GB ] Орел Девятого легиона / The Eagle [2011 история BDRip 1080p] PoBeP37 Скачать
1 | 0
Фильмы 2011 [ 1.37 GB ] Орел Девятого легиона / Eagle The [2011 история HDRip лицензия] Lil Badun Скачать
1 | 0


Последний раз редактировалось: Gramila (2011-10-28 13:57), всего редактировалось 2 раз(а)

28-11-2019 20:33  

Отключить всю рекламу на сайте

05-10-2011 15:12 Орел Девятого легиона Скачать торрент  

Скриншоты не соответствуют заявленному размеру видео!
--> Как сделать скриншот <--
После исправления :hmmm в ЛС!pb.wtf



28-10-2011 13:58 Орел Девятого легиона Скачать торрент  

Качай народpb.wtf



29-11-2011 11:52 Орел Девятого легиона Скачать торрент  

Что за народ - скачали и разбежались как тараканы...pb.wtf



    Дорогой пользователь! Огромная просьба, поблагодарите релизера, оцените раздачу и оставьте свои комментарий, если Вы скачали Орел Девятого легиона через торрент бесплатно! Внесите свою лепту в развитие PiratBit!
    Комментировать посты могут только пользователи прошедшие не сложную регистрацию
    Показать сообщения:    

    Орел Девятого легиона через торрент
    Скачать бесплатно Орел Девятого легиона
    Орел Девятого легиона скачать торрент
    Орел Девятого легиона смотреть онлайн
    Cкачать фильм Орел Девятого легиона бесплатно
    Орел Девятого легиона скачать торрент в хорошем качестве
    Орел Девятого легиона смотреть онлайн бесплатно в хорошем качестве


    Вы не можете начинать темы
    Вы не можете отвечать на сообщения
    Вы не можете редактировать свои сообщения
    Вы не можете удалять свои сообщения
    Вы не можете голосовать в опросах
    Вы не можете прикреплять файлы к сообщениям
    Вы можете скачивать файлы