Ссылка на приватное зеркало нашего сайта всего за 1$. Внимание количество ограничено!!!

2 сезон

iTunes

1 сезон

1

2 сезон

2 сезон

iTunes

1 сезон

RePack

30

Ultimate

ВАЖНО

ИГРА 18+

pack

RePack

MK11
pack

Забери бонус

RePack

jed

!!Акция!!

Alien_Rage

RePack

fifa19

RePack

Assassins Creed: Odyssey

RePack

NEED FOR SPEED™ PAYBACK

4 сезон

9 сезон

Бесстыжие 9 сезон

Все сериалы

все сериалы на PB.wtf

RePack

FAR CRY 5
  

Пригород / ПригорАд/ Suburgatory / Сезон: 1 / Серии: 1-2 (8) (Майкл Фреско, Адам Дэвидсон, Кен Уиттингэм) [2011, Комедия, HDTVRip] (Gravi-TV) pb.wtf

Пригород через торрент pb.wtf

Размер: 341 MB | Добавлен: 9 лет 1 мес. назад | Торрент скачан:0 раз
Скачать  

05-10-2011 16:38 Пригород Скачать торрент  

Пригород / Suburgatory

Год выпуска: 2011
Страна: США
Жанр: Комедия
Продолжительность: 00:21:00
Перевод: Любительский (двухголосый закадровый) - Gravi-TV
Русские субтитры: нет
Субтитры: Отсутствуют

Режиссёр: Майкл Фреско, Адам Дэвидсон, Кен Уиттингэм

В ролях: Алан Тьюдик, Карли Чаикин, Элли Грант, Шерил Хайнс, Рекс Ли, Джейн Леви, Джереми Систо, Эбби Кобб, Ана Гастейер, Маэстро Харрелл

Описание: Одинокий отец Джордж желает своей 16-летней дочери Тессе только добра. Поэтому когда он находит в ее прикроватном столике пачку презервативов, он решает переехать из Нью-Йорка в пригород. Но Тесса видит в этом только кошмарность чересчур ухоженных газонов и чересчур силиконовых мамаш. Пригород может оказаться адом, но для Тессы и Джорджа это может быть шанс сблизиться. Тесса и Джордж остались вдвоем еще до того, как Тесса научилась ходить на горшок. До сих пор Джордж неплохо справлялся с воспитанием дочери, но теперь внезапно чувствует, что самому ему не справиться. Так что прощай, Нью-Йорк, здравствуй, пригород. Поначалу Тесса в ужасе от мамочек с пластикой и их сидящих на Ред Булле чадах. Но понемногу и Тесса, и ее отец приспосабливаются к жизни на идеально чистых улицах пригорода. Конечно, соседи будут пугать вас своей любвеобильностью, а их детки будут метать в вас полные ненависти взгляды. Но под этими слоями силикона и кофеина соседи оказываются вовсе не такими уж и плохими. И жаркое у них отличное.

Релиз:
Перевод: pAKk
Озвучивание: kiitos и Chertenok

Сэмпл: http://multi-up.com/568377

Качество: HDTVRip
Формат: AVI
Видео кодек: XviD
Аудио кодек: MP3
Видео: 624 x 352, 23.976 fps, 970 kbps, 0.184 bit/pixel
Аудио: MP3 , 48000Hz 128 kb/s, 2 channels
General
Complete name : I:\Закачки\Suburgatory.s01.Gravi.TV\Suburgatory.s01e01.Gravi.TV.avi
Format : AVI
Format/Info : Audio Video Interleave
File size : 170 MiB
Duration : 21mn 30s
Overall bit rate : 1 107 Kbps
Writing application : VirtualDubMod 1.5.10.2 (build 2540/release)
Writing library : VirtualDubMod build 2540/release
Video
Format : MPEG-4 Visual
Format profile : Streaming Video@L1
Format settings, BVOP : Yes
Format settings, QPel : No
Format settings, GMC : No warppoints
Format settings, Matrix : Default (H.263)
Codec ID : XVID
Codec ID/Hint : XviD
Duration : 21mn 30s
Bit rate : 970 Kbps
Width : 624 pixels
Height : 352 pixels
Display aspect ratio : 16/9
Frame rate : 23.976 fps
Resolution : 24 bits
Colorimetry : 4:2:0
Scan type : Progressive
Bits/(Pixel*Frame) : 0.184
Stream size : 149 MiB (88%)
Writing library : XviD 1.2.1 (UTC 2008-12-04)
Audio
Format : MPEG Audio
Format version : Version 1
Format profile : Layer 3
Codec ID : 55
Codec ID/Hint : MP3
Duration : 21mn 30s
Bit rate mode : Constant
Bit rate : 128 Kbps
Channel(s) : 2 channels
Sampling rate : 48.0 KHz
Resolution : 16 bits
Stream size : 19.7 MiB (12%)
Alignment : Aligned on interleaves
Interleave, duration : 42 ms (1.00 video frame)
Interleave, preload duration : 504 ms
Раздача ведётся путём добавления новых серий; при каждом добавлении создаётся новый торрент. Чтобы начать докачку новой серии, пользователям необходимо сделать следующее:
(1) остановить скачивание,
(2) удалить старый торрент у себя из клиента (старые серии удалять не надо),
(3) скачать новый торрент и запустить его у себя в клиенте вместо старого, при этом указать клиенту путь в старую папку куда и должно происходить скачивание новых серий.
Ваш клиент при этом должен произвести хеширование (проверку) старой папки (если не производит сам - помогите ему сделать это), и будет докачивать только те серии которых у вас ещё нет. Старые серии при этом не удаляются, а продолжают раздаваться!
Eсли вы уже удалили старые серии, то предотвратить повторную закачку старых серий можно, отжав галочку в соответствующих местах при запуске нового торрента. По возможности, желательно не удалять старые серии как можно дольше чтобы релизёр не столько продолжал раздавать старые серии, а смог сконцентрироваться на новых.
Добавлена 2 серия. pb.wtf



Скачать Пригород через торрент http://i31.fastpic.ru/big/2011/1002/ba/2f19f2876016d606cfb8b82d9ec68cba.jpg Скачать фильм Пригород через торрент бесплантно в хорошем качестве Описание: Одинокий отец Джордж желает своей 16-летней дочери Тессе только добра. Поэтому когда он находит в ее прикроватном столике пачку ... 5 10 1
Info! Золотая раздача, скачанное не засчитывается.
Торрент: Зарегистрирован [2011-10-10 00:44] · скачан: 0 раз
Статус: √ проверено
Размер: 341 MB
Как cкачать? Как скачать Пригород через торрент | qTorrent



Последний раз редактировалось: nikolay27rus (2011-10-10 00:44), всего редактировалось 1 раз

28-11-2019 20:33  

Отключить всю рекламу на сайте

    Дорогой пользователь! Огромная просьба, поблагодарите релизера, оцените раздачу и оставьте свои комментарий, если Вы скачали Пригород через торрент бесплатно! Внесите свою лепту в развитие PiratBit!
    Комментировать посты могут только пользователи прошедшие не сложную регистрацию
    Показать сообщения:    

    Пригород через торрент
    Скачать бесплатно Пригород
    Пригород скачать торрент
    Пригород смотреть онлайн
    Cкачать фильм Пригород бесплатно
    Пригород скачать торрент в хорошем качестве
    Пригород смотреть онлайн бесплатно в хорошем качестве


    Вы не можете начинать темы
    Вы не можете отвечать на сообщения
    Вы не можете редактировать свои сообщения
    Вы не можете удалять свои сообщения
    Вы не можете голосовать в опросах
    Вы не можете прикреплять файлы к сообщениям
    Вы можете скачивать файлы