Ссылка на приватное зеркало нашего сайта всего за 1$. Внимание количество ограничено!!!

2 сезон

iTunes

1 сезон

1

iTunes

iTunes

iTunes

1 сезон

RePack

30

ИГРА 18+

pack

ВАЖНО

!!Акция!!

Alien_RageХит недели

RePack

MK11
pack

Забери бонус

RePack

jed

!!Акция!!

Alien_Rage

RePack

fifa19

RePack

Assassins Creed: Odyssey

RePack

NEED FOR SPEED™ PAYBACK

4 сезон

9 сезон

Бесстыжие 9 сезон

Все сериалы

все сериалы на PB.wtf

RePack

FAR CRY 5
  

Капли крови на цветущем вереске / Лето волков / Сезон: Серии: 1-6 из 6 (Дмитрий Иосифов) [2011, военный, драма, DVD9] R5 «Мистерия Звука» pb.wtf

Капли крови на цветущем вереске через торрент pb.wtf

Размер: 7.51 GB | Добавлен: 9 лет назад | Торрент скачан:93 раза
Скачать  

07-10-2011 21:31 Капли крови на цветущем вереске Скачать торрент  


Капли крови на цветущем вереске / Лето волков
Страна: Россия
Студия: Дирекция Кино
Жанр: военный, драма
Год выпуска: 2011
Российская премьера: 9 мая 2011
Дата выхода DVD: 29 сентября 2011, «Мистерия Звука»
Продолжительность: 6 х 00:50:30
Перевод: Оригинал [Лицензия]
Cубтитры: нет
Оригинальная аудиодорожка: русский
Режиссёр: Дмитрий Иосифов
В ролях: Алексей Бардуков, Юлия Пересильд, Вера Кавалерова, Михаил Евланов, Игорь Скляр, Сергей Колтаков, Александр Воробьёв, Сергей Власов, Мария Куликова, Петр Томашевский, Анна Полупанова, Олег Тактаров
Описание: Молодой лейтенант, получив отпуск после ранения, приезжает в родные места: здесь, по фронтовым понятиям, глубокий тыл. Окружённое лесами село мало изменилось, война почти не тронула его. Но, всё то и не то… Любимая девушка, давшая обещание «ждать вечно», не хочет даже разговаривать, земляки избегают его, а самый близкий человек, бабка, добрый ангел детства, умоляет снять награды с гимнастёрки и ни за что не ходить в лес. Жестокие убийства заставляют фронтовика вступить в борьбу с теми, кто таится в лесных чащобах. но, чтобы добраться до убийц, предстоит выяснить, кто из односельчан связан с ними…
Доп. информация: нет

Качество: DVD9 R5
Формат: DVD-Video
Видео кодек: MPEG2
Аудио кодек: AC3
Видео: PAL 16:9 (720x576(0.300)) MPEG Video, 25,000 кадр/сек, 3109 Кбит/сек
Аудио: Russian (Dolby AC3, 6 ch) 384 Кбит/сек, 48,0 КГц



Size: 7.51 Gb ( 7 870 136 KBytes ) - DVD-9
Enabled regions: 1, 2, 3, 4, 5, 6, 7, 8

VTS_01 :
Play Length: 00:00:16
Video: PAL 16:9 (720x576) VBR, Auto Pan&Scan
Audio:
Russian (Dolby AC3, 2 ch)

VTS_02 :
Play Length: 05:09:48
Video: PAL 16:9 (720x576) VBR, Auto Pan&Scan
Audio:
Russian (Dolby AC3, 6 ch)
Общее
Полное имя : G:\Новинки 2011\Leto.volkov.2011.DVD9\VIDEO_TS\VTS_02_1.VOB
Формат : MPEG-PS
Размер файла : 1024 Мбайт
Продолжительность : 40 м.
Общий поток : 3564 Кбит/сек

Видео
Идентификатор : 224 (0xE0)
Формат : MPEG Video
Версия формата : Version 2
Профиль формата : Main@Main
Параметр BVOP формата : Да
Параметр матрицы формата : Выборочная
Продолжительность : 40 м.
Вид битрейта : Переменный
Битрейт : 3109 Кбит/сек
Максимальный битрейт : 8000 Кбит/сек
Ширина : 720 пикселей
Высота : 576 пикселей
Соотношение сторон : 16:9
Частота кадров : 25,000 кадров/сек
Стандарт вещания : PAL
Цветовое пространство : YUV
Субдискретизация насыщенности : 4:2:0
Битовая глубина : 8 бит
Тип развёртки : Прогрессивная
Метод сжатия : С потерями
Бит/(Пиксели*Кадры) : 0.300
Размер потока : 893 Мбайт (87%)

Аудио
Идентификатор : 189 (0xBD)-128 (0x80)
Формат : AC-3
Формат/Информация : Audio Coding 3
Расширение режима : CM (complete main)
Режим смешивания : DVD-Video
Продолжительность : 40 м.
Вид битрейта : Постоянный
Битрейт : 384 Кбит/сек
Каналы : 6 каналов
Расположение каналов : Front: L C R, Side: L R, LFE
Частота : 48,0 КГц
Битовая глубина : 16 бит
Метод сжатия : С потерями
Размер потока : 110 Мбайт (11%)










pb.wtf



Скачать Капли крови на цветущем вереске через торрент http://i4.imageban.ru/out/2011/10/07/f0ca0ec9218a5dd083f47f0c1a7d755a.jpg Скачать фильм Капли крови на цветущем вереске через торрент бесплантно в хорошем качестве Описание: Молодой лейтенант, получив отпуск после ранения, приезжает в родные места: здесь, по фронтовым понятиям, глубокий тыл. Окружённое ... 10 10 1
Info! Золотая раздача, скачанное не засчитывается.
Торрент: Зарегистрирован [2011-10-07 21:31] · скачан: 93 раз
Статус: √ проверено
Размер: 7.51 GB
Как cкачать? Как скачать Капли крови на цветущем вереске через торрент | qTorrent

28-11-2019 20:33  

Отключить всю рекламу на сайте

    Дорогой пользователь! Огромная просьба, поблагодарите релизера, оцените раздачу и оставьте свои комментарий, если Вы скачали Капли крови на цветущем вереске через торрент бесплатно! Внесите свою лепту в развитие PiratBit!
    Комментировать посты могут только пользователи прошедшие не сложную регистрацию
    Показать сообщения:    

    Капли крови на цветущем вереске через торрент
    Скачать бесплатно Капли крови на цветущем вереске
    Капли крови на цветущем вереске скачать торрент
    Капли крови на цветущем вереске смотреть онлайн
    Cкачать фильм Капли крови на цветущем вереске бесплатно
    Капли крови на цветущем вереске скачать торрент в хорошем качестве
    Капли крови на цветущем вереске смотреть онлайн бесплатно в хорошем качестве


    Вы не можете начинать темы
    Вы не можете отвечать на сообщения
    Вы не можете редактировать свои сообщения
    Вы не можете удалять свои сообщения
    Вы не можете голосовать в опросах
    Вы не можете прикреплять файлы к сообщениям
    Вы можете скачивать файлы