Присоединяйтесь к нам в Telegram!, здесь всегда актуальный адрес сайта, оперативная поддержка и многое другое!!

>

5.9

iTunes

7.4

iTunes

9.4

1 сезон

1

7.4

2 сезон

7.2

iTunes

7.3

1 сезон

13

6.1

iTunes

8.3

GOG

30

ULTIMATE

pack

9.9

Лицензия

ВАЖНО

ИГРА 18+

pack

7.3

RePack

MK11

7.7

RePack

jed

7.8

RePack

fifa19

8.5

RePack

RDR2

RePack

NEED FOR SPEED™ PAYBACK

5 сезон

9 сезон

Бесстыжие 9 сезон

Все сериалы

все сериалы на PB.wtf

RePack

FAR CRY 5

Anonymous, доброе утро, мы катастрофически не успеваем собрать деньги на оплату серверов, помогите нам пожалуйста 5,10,15р., для нас важна любая помощь . В качестве благодарности мы отключим Вам всю рекламу на сайте (укажите свой ник в строку Ваше имя)!

×
  
Magnet ссылка

Натали - Сборник клипов [1996 г., Pop, DVDRip] pb.wtf

Натали - Сборник клипов через торрент pb.wtf

Размер: 5.06 GB | Добавлен: 10 лет назад | Торрент скачан:312 раз
Смотреть онлайн Натали - Сборник клипов | Скачать    Ребята, помогите собрать деньги на оплату серверов!!!

08-10-2011 14:42 Натали - Сборник клипов Скачать торрент  



*Натали - Сборник клипов



Год выпуска: 1996-2006
Страна: Россия
Жанр: Pop
Продолжительность: 01:00:07
Перевод: Не требуется


1*Натали - Всё что мне надо
2*Натали - Облака
3*Натали - Ветер с моря дул(4:3)
4*Натали - Не стерпелось,не слюбилось
5*Натали - Снежная роза
6*Натали - Мир без тебя
7*Натали - Первая любовь
8*Натали - Звезда по имени солнце
9*Натали - Море цвета джинсов
10*Натали - Ветер с моря дул (Remix)
11*Натали - Черепашка
12*Натали - Считалочка
13*Натали - Черепашка (remix)
14*Натали - Вот как
15*Натали - Часто-часто
16*Натали - Конфетка

Качество: DVDRip
Формат: MPEG(AVI)
Видео кодек: MPEG2(DivX5)
Аудио кодек: MPEG Audio
Видео :( MPEG Video at 12,1 Мбит/сек Aspect : 1280 x 720) (1.778) at 25.000 fps( MPEG-4 Visual at 666 Кбит/сек
Aspect : 304 x 224 (1.357) at 25.000 fps)

Аудио: MPEG Audio at 384 Кбит/сек Infos : 2 канала, 48,0 КГц

скриншот  скриншот  скриншот  скриншот  скриншот  скриншот  скриншот  скриншот  скриншот  
Общее
Идентификатор : 255 (0xFF)
Полное имя : D:\Клипы\Натали\Natali - Mir bez teb'a .m2t
Формат : MPEG-TS
Размер файла : 372 Мбайт
Продолжительность : 4 м. 3 с.
Общий поток : 12,8 Мбит/сек

Видео
Идентификатор : 2064 (0x810)
Идентификатор меню : 100 (0x64)
Формат : MPEG Video
Версия формата : Version 2
Профиль формата : Main@Main
Параметр BVOP формата : Да
Параметр матрицы формата : По умолчанию
Параметры GOP формата : M=3, N=15
Идентификатор кодека : 2
Продолжительность : 4 м. 3 с.
Вид битрейта : Постоянный
Битрейт : 12,1 Мбит/сек
Ширина : 1280 пикс.
Высота : 720 пикс.
Соотношение сторон : 16:9
Частота кадров : 25,000 кадр/сек
Стандарт вещания : PAL
Цветовое пространство : YUV
Подвыборка цветности : 4:2:0
Битовая глубина : 8 бит
Тип развёртки : Прогрессивная
Метод сжатия : С потерями
Бит/(Пиксели*Кадры) : 0.524
Размер потока : 343 Мбайт (92%)

Аудио
Идентификатор : 2068 (0x814)
Идентификатор меню : 100 (0x64)
Формат : MPEG Audio
Версия формата : Version 1
Профиль формата : Layer 2
Идентификатор кодека : 3
Продолжительность : 4 м. 3 с.
Вид битрейта : Постоянный
Битрейт : 384 Кбит/сек
Каналы : 2 канала
Частота : 48,0 КГц
Метод сжатия : С потерями
Размер потока : 11,2 Мбайт (3%)

Общее
Полное имя : D:\Клипы\Натали\Natali - Veter s mor'a dul.avi
Формат : AVI
Формат/Информация : Audio Video Interleave
Размер файла : 23,5 Мбайт
Продолжительность : 3 м. 55 с.
Общий поток : 835 Кбит/сек
Программа кодирования : VirtualDubMod 1.5.1.1a (build 1215/release)
Библиотека кодирования : VirtualDubMod build 1215/release

Видео
Идентификатор : 0
Формат : MPEG-4 Visual
Параметр BVOP формата : 1
Параметр QPel формата : Нет
Параметр GMC формата : 2 точки перехода
Параметр матрицы формата : Default (H.263)
Режим смешивания : Сжатый битовый поток
Идентификатор кодека : DX50
Идентификатор кодека/Подсказка : DivX 5
Продолжительность : 3 м. 55 с.
Битрейт : 666 Кбит/сек
Ширина : 304 пикс.
Высота : 224 пикс.
Соотношение сторон : 4:3
Частота кадров : 25,000 кадр/сек
Цветовое пространство : YUV
Подвыборка цветности : 4:2:0
Битовая глубина : 8 бит
Тип развёртки : Прогрессивная
Метод сжатия : С потерями
Бит/(Пиксели*Кадры) : 0.391
Размер потока : 18,7 Мбайт (80%)
Библиотека кодирования : DivX 5.0.5 (UTC 2003-04-24)

Аудио
Идентификатор : 1
Формат : MPEG Audio
Версия формата : Version 1
Профиль формата : Layer 3
Режим : Joint stereo
Расширение режима : MS Stereo
Идентификатор кодека : 55
Идентификатор кодека/Подсказка : MP3
Продолжительность : 3 м. 54 с.
Вид битрейта : Постоянный
Битрейт : 160 Кбит/сек
Каналы : 2 канала
Частота : 44,1 КГц
Метод сжатия : С потерями
Задержка видео : 680 мс.
Размер потока : 4,47 Мбайт (19%)
Выравнивание : Разделение по промежуткам
Продолжительность промежутка : 40 мс. (1,01 видеокадр)
Время предзагрузки промежутка : 500 ms

Общее
Идентификатор : 255 (0xFF)
Полное имя : D:\Клипы\Натали\Natali More cveta dzhinsov.m2t
Формат : MPEG-TS
Размер файла : 332 Мбайт
Продолжительность : 3 м. 37 с.
Общий поток : 12,8 Мбит/сек

Видео
Идентификатор : 2064 (0x810)
Идентификатор меню : 100 (0x64)
Формат : MPEG Video
Версия формата : Version 2
Профиль формата : Main@Main
Параметр BVOP формата : Да
Параметр матрицы формата : По умолчанию
Параметры GOP формата : M=3, N=15
Идентификатор кодека : 2
Продолжительность : 3 м. 37 с.
Вид битрейта : Постоянный
Битрейт : 12,1 Мбит/сек
Ширина : 1280 пикс.
Высота : 720 пикс.
Соотношение сторон : 16:9
Частота кадров : 25,000 кадр/сек
Стандарт вещания : PAL
Цветовое пространство : YUV
Подвыборка цветности : 4:2:0
Битовая глубина : 8 бит
Тип развёртки : Прогрессивная
Метод сжатия : С потерями
Бит/(Пиксели*Кадры) : 0.524
Размер потока : 306 Мбайт (92%)

Аудио
Идентификатор : 2068 (0x814)
Идентификатор меню : 100 (0x64)
Формат : MPEG Audio
Версия формата : Version 1
Профиль формата : Layer 2
Идентификатор кодека : 3
Продолжительность : 3 м. 37 с.
Вид битрейта : Постоянный
Битрейт : 384 Кбит/сек
Каналы : 2 канала
Частота : 48,0 КГц
Метод сжатия : С потерями
Размер потока : 9,95 Мбайт (3%)

Общее
Идентификатор : 255 (0xFF)
Полное имя : D:\Клипы\Натали\Natali Ne sterpelos',ne sl'ubilos'.m2t
Формат : MPEG-TS
Размер файла : 328 Мбайт
Продолжительность : 3 м. 34 с.
Общий поток : 12,8 Мбит/сек

Видео
Идентификатор : 2064 (0x810)
Идентификатор меню : 100 (0x64)
Формат : MPEG Video
Версия формата : Version 2
Профиль формата : Main@Main
Параметр BVOP формата : Да
Параметр матрицы формата : По умолчанию
Параметры GOP формата : M=3, N=15
Идентификатор кодека : 2
Продолжительность : 3 м. 34 с.
Вид битрейта : Постоянный
Битрейт : 12,1 Мбит/сек
Ширина : 1280 пикс.
Высота : 720 пикс.
Соотношение сторон : 16:9
Частота кадров : 25,000 кадр/сек
Стандарт вещания : PAL
Цветовое пространство : YUV
Подвыборка цветности : 4:2:0
Битовая глубина : 8 бит
Тип развёртки : Прогрессивная
Метод сжатия : С потерями
Бит/(Пиксели*Кадры) : 0.524
Размер потока : 302 Мбайт (92%)

Аудио
Идентификатор : 2068 (0x814)
Идентификатор меню : 100 (0x64)
Формат : MPEG Audio
Версия формата : Version 1
Профиль формата : Layer 2
Идентификатор кодека : 3
Продолжительность : 3 м. 34 с.
Вид битрейта : Постоянный
Битрейт : 384 Кбит/сек
Каналы : 2 канала
Частота : 48,0 КГц
Метод сжатия : С потерями
Размер потока : 9,82 Мбайт (3%)

Общее
Идентификатор : 255 (0xFF)
Полное имя : D:\Клипы\Натали\Natali Oblaka.m2t
Формат : MPEG-TS
Размер файла : 299 Мбайт
Продолжительность : 3 м. 15 с.
Общий поток : 12,8 Мбит/сек

Видео
Идентификатор : 2064 (0x810)
Идентификатор меню : 100 (0x64)
Формат : MPEG Video
Версия формата : Version 2
Профиль формата : Main@Main
Параметр BVOP формата : Да
Параметр матрицы формата : По умолчанию
Параметры GOP формата : M=3, N=15
Идентификатор кодека : 2
Продолжительность : 3 м. 15 с.
Вид битрейта : Постоянный
Битрейт : 12,1 Мбит/сек
Ширина : 1280 пикс.
Высота : 720 пикс.
Соотношение сторон : 16:9
Частота кадров : 25,000 кадр/сек
Стандарт вещания : PAL
Цветовое пространство : YUV
Подвыборка цветности : 4:2:0
Битовая глубина : 8 бит
Тип развёртки : Прогрессивная
Метод сжатия : С потерями
Бит/(Пиксели*Кадры) : 0.524
Размер потока : 275 Мбайт (92%)

Аудио
Идентификатор : 2068 (0x814)
Идентификатор меню : 100 (0x64)
Формат : MPEG Audio
Версия формата : Version 1
Профиль формата : Layer 2
Идентификатор кодека : 3
Продолжительность : 3 м. 15 с.
Вид битрейта : Постоянный
Битрейт : 384 Кбит/сек
Каналы : 2 канала
Частота : 48,0 КГц
Метод сжатия : С потерями
Размер потока : 8,95 Мбайт (3%)

Общее
Идентификатор : 255 (0xFF)
Полное имя : D:\Клипы\Натали\Natali Snezhnaja roza.m2t
Формат : MPEG-TS
Размер файла : 386 Мбайт
Продолжительность : 4 м. 12 с.
Общий поток : 12,8 Мбит/сек

Видео
Идентификатор : 2064 (0x810)
Идентификатор меню : 100 (0x64)
Формат : MPEG Video
Версия формата : Version 2
Профиль формата : Main@Main
Параметр BVOP формата : Да
Параметр матрицы формата : По умолчанию
Параметры GOP формата : M=3, N=15
Идентификатор кодека : 2
Продолжительность : 4 м. 12 с.
Вид битрейта : Постоянный
Битрейт : 12,1 Мбит/сек
Ширина : 1280 пикс.
Высота : 720 пикс.
Соотношение сторон : 16:9
Частота кадров : 25,000 кадр/сек
Стандарт вещания : PAL
Цветовое пространство : YUV
Подвыборка цветности : 4:2:0
Битовая глубина : 8 бит
Тип развёртки : Прогрессивная
Метод сжатия : С потерями
Бит/(Пиксели*Кадры) : 0.524
Размер потока : 355 Мбайт (92%)

Аудио
Идентификатор : 2068 (0x814)
Идентификатор меню : 100 (0x64)
Формат : MPEG Audio
Версия формата : Version 1
Профиль формата : Layer 2
Идентификатор кодека : 3
Продолжительность : 4 м. 12 с.
Вид битрейта : Постоянный
Битрейт : 384 Кбит/сек
Каналы : 2 канала
Частота : 48,0 КГц
Метод сжатия : С потерями
Размер потока : 11,6 Мбайт (3%)

Общее
Идентификатор : 255 (0xFF)
Полное имя : D:\Клипы\Натали\Natali Veter s mor'a dul remiks.m2t
Формат : MPEG-TS
Размер файла : 353 Мбайт
Продолжительность : 3 м. 51 с.
Общий поток : 12,8 Мбит/сек

Видео
Идентификатор : 2064 (0x810)
Идентификатор меню : 100 (0x64)
Формат : MPEG Video
Версия формата : Version 2
Профиль формата : Main@Main
Параметр BVOP формата : Да
Параметр матрицы формата : По умолчанию
Параметры GOP формата : M=3, N=15
Идентификатор кодека : 2
Продолжительность : 3 м. 51 с.
Вид битрейта : Постоянный
Битрейт : 12,1 Мбит/сек
Ширина : 1280 пикс.
Высота : 720 пикс.
Соотношение сторон : 16:9
Частота кадров : 25,000 кадр/сек
Стандарт вещания : PAL
Цветовое пространство : YUV
Подвыборка цветности : 4:2:0
Битовая глубина : 8 бит
Тип развёртки : Прогрессивная
Метод сжатия : С потерями
Бит/(Пиксели*Кадры) : 0.524
Размер потока : 325 Мбайт (92%)

Аудио
Идентификатор : 2068 (0x814)
Идентификатор меню : 100 (0x64)
Формат : MPEG Audio
Версия формата : Version 1
Профиль формата : Layer 2
Идентификатор кодека : 3
Продолжительность : 3 м. 51 с.
Вид битрейта : Постоянный
Битрейт : 384 Кбит/сек
Каналы : 2 канала
Частота : 48,0 КГц
Метод сжатия : С потерями
Размер потока : 10,6 Мбайт (3%)

Общее
Идентификатор : 255 (0xFF)
Полное имя : D:\Клипы\Натали\Natali Vs'o chto mne nado.m2t
Формат : MPEG-TS
Размер файла : 319 Мбайт
Продолжительность : 3 м. 28 с.
Общий поток : 12,8 Мбит/сек

Видео
Идентификатор : 2064 (0x810)
Идентификатор меню : 100 (0x64)
Формат : MPEG Video
Версия формата : Version 2
Профиль формата : Main@Main
Параметр BVOP формата : Да
Параметр матрицы формата : По умолчанию
Параметры GOP формата : M=3, N=15
Идентификатор кодека : 2
Продолжительность : 3 м. 28 с.
Вид битрейта : Постоянный
Битрейт : 12,1 Мбит/сек
Ширина : 1280 пикс.
Высота : 720 пикс.
Соотношение сторон : 16:9
Частота кадров : 25,000 кадр/сек
Стандарт вещания : PAL
Цветовое пространство : YUV
Подвыборка цветности : 4:2:0
Битовая глубина : 8 бит
Тип развёртки : Прогрессивная
Метод сжатия : С потерями
Бит/(Пиксели*Кадры) : 0.524
Размер потока : 293 Мбайт (92%)

Аудио
Идентификатор : 2068 (0x814)
Идентификатор меню : 100 (0x64)
Формат : MPEG Audio
Версия формата : Version 1
Профиль формата : Layer 2
Идентификатор кодека : 3
Продолжительность : 3 м. 28 с.
Вид битрейта : Постоянный
Битрейт : 384 Кбит/сек
Каналы : 2 канала
Частота : 48,0 КГц
Метод сжатия : С потерями
Размер потока : 9,55 Мбайт (3%)

Общее
Идентификатор : 255 (0xFF)
Полное имя : D:\Клипы\Натали\NataliZvezda po imeni solnce.m2t
Формат : MPEG-TS
Размер файла : 387 Мбайт
Продолжительность : 4 м. 13 с.
Общий поток : 12,8 Мбит/сек

Видео
Идентификатор : 2064 (0x810)
Идентификатор меню : 100 (0x64)
Формат : MPEG Video
Версия формата : Version 2
Профиль формата : Main@Main
Параметр BVOP формата : Да
Параметр матрицы формата : По умолчанию
Параметры GOP формата : M=3, N=15
Идентификатор кодека : 2
Продолжительность : 4 м. 13 с.
Вид битрейта : Постоянный
Битрейт : 12,1 Мбит/сек
Ширина : 1280 пикс.
Высота : 720 пикс.
Соотношение сторон : 16:9
Частота кадров : 25,000 кадр/сек
Стандарт вещания : PAL
Цветовое пространство : YUV
Подвыборка цветности : 4:2:0
Битовая глубина : 8 бит
Тип развёртки : Прогрессивная
Метод сжатия : С потерями
Бит/(Пиксели*Кадры) : 0.524
Размер потока : 357 Мбайт (92%)

Аудио
Идентификатор : 2068 (0x814)
Идентификатор меню : 100 (0x64)
Формат : MPEG Audio
Версия формата : Version 1
Профиль формата : Layer 2
Идентификатор кодека : 3
Продолжительность : 4 м. 13 с.
Вид битрейта : Постоянный
Битрейт : 384 Кбит/сек
Каналы : 2 канала
Частота : 48,0 КГц
Метод сжатия : С потерями
Размер потока : 11,6 Мбайт (3%)

Общее
Идентификатор : 255 (0xFF)
Полное имя : D:\Клипы\Натали\Натали - Вот как.m2t
Формат : MPEG-TS
Размер файла : 375 Мбайт
Продолжительность : 4 м. 5 с.
Общий поток : 12,8 Мбит/сек

Видео
Идентификатор : 2064 (0x810)
Идентификатор меню : 100 (0x64)
Формат : MPEG Video
Версия формата : Version 2
Профиль формата : Main@Main
Параметр BVOP формата : Да
Параметр матрицы формата : По умолчанию
Параметры GOP формата : M=3, N=15
Идентификатор кодека : 2
Продолжительность : 4 м. 5 с.
Вид битрейта : Постоянный
Битрейт : 12,1 Мбит/сек
Ширина : 1280 пикс.
Высота : 720 пикс.
Соотношение сторон : 16:9
Частота кадров : 25,000 кадр/сек
Стандарт вещания : PAL
Цветовое пространство : YUV
Подвыборка цветности : 4:2:0
Битовая глубина : 8 бит
Тип развёртки : Прогрессивная
Метод сжатия : С потерями
Бит/(Пиксели*Кадры) : 0.524
Размер потока : 345 Мбайт (92%)

Аудио
Идентификатор : 2068 (0x814)
Идентификатор меню : 100 (0x64)
Формат : MPEG Audio
Версия формата : Version 1
Профиль формата : Layer 2
Идентификатор кодека : 3
Продолжительность : 4 м. 5 с.
Вид битрейта : Постоянный
Битрейт : 384 Кбит/сек
Каналы : 2 канала
Частота : 48,0 КГц
Метод сжатия : С потерями
Размер потока : 11,2 Мбайт (3%)

Общее
Идентификатор : 255 (0xFF)
Полное имя : D:\Клипы\Натали\Натали - Конфетка.m2t
Формат : MPEG-TS
Размер файла : 339 Мбайт
Продолжительность : 3 м. 41 с.
Общий поток : 12,8 Мбит/сек

Видео
Идентификатор : 2064 (0x810)
Идентификатор меню : 100 (0x64)
Формат : MPEG Video
Версия формата : Version 2
Профиль формата : Main@Main
Параметр BVOP формата : Да
Параметр матрицы формата : По умолчанию
Параметры GOP формата : M=3, N=15
Идентификатор кодека : 2
Продолжительность : 3 м. 41 с.
Вид битрейта : Постоянный
Битрейт : 12,1 Мбит/сек
Ширина : 1280 пикс.
Высота : 720 пикс.
Соотношение сторон : 16:9
Частота кадров : 25,000 кадр/сек
Стандарт вещания : PAL
Цветовое пространство : YUV
Подвыборка цветности : 4:2:0
Битовая глубина : 8 бит
Тип развёртки : Прогрессивная
Метод сжатия : С потерями
Бит/(Пиксели*Кадры) : 0.524
Размер потока : 312 Мбайт (92%)

Аудио
Идентификатор : 2068 (0x814)
Идентификатор меню : 100 (0x64)
Формат : MPEG Audio
Версия формата : Version 1
Профиль формата : Layer 2
Идентификатор кодека : 3
Продолжительность : 3 м. 41 с.
Вид битрейта : Постоянный
Битрейт : 384 Кбит/сек
Каналы : 2 канала
Частота : 48,0 КГц
Метод сжатия : С потерями
Размер потока : 10,2 Мбайт (3%)

Общее
Идентификатор : 255 (0xFF)
Полное имя : D:\Клипы\Натали\Натали - Первая любовь.m2t
Формат : MPEG-TS
Размер файла : 362 Мбайт
Продолжительность : 3 м. 56 с.
Общий поток : 12,8 Мбит/сек

Видео
Идентификатор : 2064 (0x810)
Идентификатор меню : 100 (0x64)
Формат : MPEG Video
Версия формата : Version 2
Профиль формата : Main@Main
Параметр BVOP формата : Да
Параметр матрицы формата : По умолчанию
Параметры GOP формата : M=3, N=15
Идентификатор кодека : 2
Продолжительность : 3 м. 56 с.
Вид битрейта : Постоянный
Битрейт : 12,1 Мбит/сек
Ширина : 1280 пикс.
Высота : 720 пикс.
Соотношение сторон : 16:9
Частота кадров : 25,000 кадр/сек
Стандарт вещания : PAL
Цветовое пространство : YUV
Подвыборка цветности : 4:2:0
Битовая глубина : 8 бит
Тип развёртки : Прогрессивная
Метод сжатия : С потерями
Бит/(Пиксели*Кадры) : 0.524
Размер потока : 333 Мбайт (92%)

Аудио
Идентификатор : 2068 (0x814)
Идентификатор меню : 100 (0x64)
Формат : MPEG Audio
Версия формата : Version 1
Профиль формата : Layer 2
Идентификатор кодека : 3
Продолжительность : 3 м. 56 с.
Вид битрейта : Постоянный
Битрейт : 384 Кбит/сек
Каналы : 2 канала
Частота : 48,0 КГц
Метод сжатия : С потерями
Размер потока : 10,8 Мбайт (3%)

Общее
Идентификатор : 255 (0xFF)
Полное имя : D:\Клипы\Натали\Натали - Считалочка.m2t
Формат : MPEG-TS
Размер файла : 352 Мбайт
Продолжительность : 3 м. 50 с.
Общий поток : 12,8 Мбит/сек

Видео
Идентификатор : 2064 (0x810)
Идентификатор меню : 100 (0x64)
Формат : MPEG Video
Версия формата : Version 2
Профиль формата : Main@Main
Параметр BVOP формата : Да
Параметр матрицы формата : По умолчанию
Параметры GOP формата : M=3, N=15
Идентификатор кодека : 2
Продолжительность : 3 м. 50 с.
Вид битрейта : Постоянный
Битрейт : 12,1 Мбит/сек
Ширина : 1280 пикс.
Высота : 720 пикс.
Соотношение сторон : 16:9
Частота кадров : 25,000 кадр/сек
Стандарт вещания : PAL
Цветовое пространство : YUV
Подвыборка цветности : 4:2:0
Битовая глубина : 8 бит
Тип развёртки : Прогрессивная
Метод сжатия : С потерями
Бит/(Пиксели*Кадры) : 0.524
Размер потока : 324 Мбайт (92%)

Аудио
Идентификатор : 2068 (0x814)
Идентификатор меню : 100 (0x64)
Формат : MPEG Audio
Версия формата : Version 1
Профиль формата : Layer 2
Идентификатор кодека : 3
Продолжительность : 3 м. 50 с.
Вид битрейта : Постоянный
Битрейт : 384 Кбит/сек
Каналы : 2 канала
Частота : 48,0 КГц
Метод сжатия : С потерями
Размер потока : 10,6 Мбайт (3%)

Общее
Идентификатор : 255 (0xFF)
Полное имя : D:\Клипы\Натали\Натали - Часто-часто.m2t
Формат : MPEG-TS
Размер файла : 323 Мбайт
Продолжительность : 3 м. 31 с.
Общий поток : 12,8 Мбит/сек

Видео
Идентификатор : 2064 (0x810)
Идентификатор меню : 100 (0x64)
Формат : MPEG Video
Версия формата : Version 2
Профиль формата : Main@Main
Параметр BVOP формата : Да
Параметр матрицы формата : По умолчанию
Параметры GOP формата : M=3, N=15
Идентификатор кодека : 2
Продолжительность : 3 м. 31 с.
Вид битрейта : Постоянный
Битрейт : 12,1 Мбит/сек
Ширина : 1280 пикс.
Высота : 720 пикс.
Соотношение сторон : 16:9
Частота кадров : 25,000 кадр/сек
Стандарт вещания : PAL
Цветовое пространство : YUV
Подвыборка цветности : 4:2:0
Битовая глубина : 8 бит
Тип развёртки : Прогрессивная
Метод сжатия : С потерями
Бит/(Пиксели*Кадры) : 0.524
Размер потока : 297 Мбайт (92%)

Аудио
Идентификатор : 2068 (0x814)
Идентификатор меню : 100 (0x64)
Формат : MPEG Audio
Версия формата : Version 1
Профиль формата : Layer 2
Идентификатор кодека : 3
Продолжительность : 3 м. 31 с.
Вид битрейта : Постоянный
Битрейт : 384 Кбит/сек
Каналы : 2 канала
Частота : 48,0 КГц
Метод сжатия : С потерями
Размер потока : 9,67 Мбайт (3%)

Общее
Идентификатор : 255 (0xFF)
Полное имя : D:\Клипы\Натали\Натали - Черепашка (remix).m2t
Формат : MPEG-TS
Размер файла : 309 Мбайт
Продолжительность : 3 м. 22 с.
Общий поток : 12,8 Мбит/сек

Видео
Идентификатор : 2064 (0x810)
Идентификатор меню : 100 (0x64)
Формат : MPEG Video
Версия формата : Version 2
Профиль формата : Main@Main
Параметр BVOP формата : Да
Параметр матрицы формата : По умолчанию
Параметры GOP формата : M=3, N=15
Идентификатор кодека : 2
Продолжительность : 3 м. 22 с.
Вид битрейта : Постоянный
Битрейт : 12,1 Мбит/сек
Ширина : 1280 пикс.
Высота : 720 пикс.
Соотношение сторон : 16:9
Частота кадров : 25,000 кадр/сек
Стандарт вещания : PAL
Цветовое пространство : YUV
Подвыборка цветности : 4:2:0
Битовая глубина : 8 бит
Тип развёртки : Прогрессивная
Метод сжатия : С потерями
Бит/(Пиксели*Кадры) : 0.524
Размер потока : 284 Мбайт (92%)

Аудио
Идентификатор : 2068 (0x814)
Идентификатор меню : 100 (0x64)
Формат : MPEG Audio
Версия формата : Version 1
Профиль формата : Layer 2
Идентификатор кодека : 3
Продолжительность : 3 м. 22 с.
Вид битрейта : Постоянный
Битрейт : 384 Кбит/сек
Каналы : 2 канала
Частота : 48,0 КГц
Метод сжатия : С потерями
Размер потока : 9,26 Мбайт (3%)

Общее
Идентификатор : 255 (0xFF)
Полное имя : D:\Клипы\Натали\Натали - Черепашка.m2t
Формат : MPEG-TS
Размер файла : 317 Мбайт
Продолжительность : 3 м. 27 с.
Общий поток : 12,8 Мбит/сек

Видео
Идентификатор : 2064 (0x810)
Идентификатор меню : 100 (0x64)
Формат : MPEG Video
Версия формата : Version 2
Профиль формата : Main@Main
Параметр BVOP формата : Да
Параметр матрицы формата : По умолчанию
Параметры GOP формата : M=3, N=15
Идентификатор кодека : 2
Продолжительность : 3 м. 27 с.
Вид битрейта : Постоянный
Битрейт : 12,1 Мбит/сек
Ширина : 1280 пикс.
Высота : 720 пикс.
Соотношение сторон : 16:9
Частота кадров : 25,000 кадр/сек
Стандарт вещания : PAL
Цветовое пространство : YUV
Подвыборка цветности : 4:2:0
Битовая глубина : 8 бит
Тип развёртки : Прогрессивная
Метод сжатия : С потерями
Бит/(Пиксели*Кадры) : 0.524
Размер потока : 292 Мбайт (92%)

Аудио
Идентификатор : 2068 (0x814)
Идентификатор меню : 100 (0x64)
Формат : MPEG Audio
Версия формата : Version 1
Профиль формата : Layer 2
Идентификатор кодека : 3
Продолжительность : 3 м. 27 с.
Вид битрейта : Постоянный
Битрейт : 384 Кбит/сек
Каналы : 2 канала
Частота : 48,0 КГц
Метод сжатия : С потерями
Размер потока : 9,50 Мбайт (3%)
pb.wtf



Скачать Натали - Сборник клипов через торрент http://i32.fastpic.ru/big/2011/1008/ef/562dd1152d0b2b674e28c7b2a71384ef.png Скачать, смотреть онлайн Натали - Сборник клипов [1996 г., Pop, DVDRip] бесплантно в хорошем качестве Год выпуска: 1996-2006Страна: РоссияЖанр: PopПродолжительность: 01:00:07Перевод: Не требуется 1*Натали - Всё что мне надо2*Натали - ... 9.9 10 7
Info! Золотая раздача, скачанное не засчитывается.
Торрент: Зарегистрирован [2011-10-08 14:42] · скачан: 312 раз
Статус: √ проверено
Размер: 5.06 GB
Как cкачать? Как скачать Натали - Сборник клипов через торрент | UTorrent

28-11-2019 20:33  

Отключить всю рекламу на сайте

24-05-2012 12:51 Натали - Сборник клипов Скачать торрент  

Встаньте кто нить на раздачуpb.wtf



    Дорогой пользователь! Огромная просьба, поблагодарите релизера, оцените раздачу и оставьте свои комментарий, если Вы скачали Натали - Сборник клипов через торрент бесплатно!
    Комментировать посты могут только пользователи прошедшие не сложную регистрацию
    Показать сообщения:    

    Натали - Сборник клипов через торрент
    Скачать бесплатно Натали - Сборник клипов
    Натали - Сборник клипов скачать торрент
    Натали - Сборник клипов смотреть онлайн
    Cкачать фильм Натали - Сборник клипов бесплатно
    Натали - Сборник клипов скачать торрент в хорошем качестве
    Натали - Сборник клипов смотреть онлайн бесплатно в хорошем качестве


    Вы не можете начинать темы
    Вы не можете отвечать на сообщения
    Вы не можете редактировать свои сообщения
    Вы не можете удалять свои сообщения
    Вы не можете голосовать в опросах
    Вы не можете прикреплять файлы к сообщениям
    Вы можете скачивать файлы