2 сезон

iTunes

MVO

1

2 сезон

iTunes

iTunes

1 сезон

RePack

30

Новинка

ВАЖНО

ИГРА 18+

pack

RePack

MK11
pack

Легкие деньги

RePack

jed

RePack

fifa19

RePack

RDR2

RePack

NEED FOR SPEED™ PAYBACK

4 сезон

9 сезон

Бесстыжие 9 сезон

Все сериалы

все сериалы на PB.wtf

RePack

FAR CRY 5

Anonymous, доброй ночи, мы не успеваем собрать деньги на оплату серверов за декабрь и январь, помогите нам пожалуйста в это трудное время. В качестве благодарности мы отключим Вам всю рекламу на сайте (укажите свой ник в строку Ваше имя)!

×
  
Magnet ссылка

Том и Джерри и волшебник из страны Оз / Tom and Jerry & The Wizard of Oz (Спайк Брандт / Spike Brandt) [2011, мультфильм, семейный, DVD5] R5 «CP-Digital» pb.wtf

Том и Джерри и волшебник из страны Оз через торрент pb.wtf

Размер: 4.36 GB | Добавлен: 9 лет 3 мес. назад | Торрент скачан:136 раз
Скачать  

10-10-2011 20:36 Том и Джерри и волшебник из страны Оз Скачать торрент  


Том и Джерри и волшебник из страны Оз / Tom and Jerry & The Wizard of Oz
Страна: США
Студия: Warner Bros
Жанр: мультфильм, семейный
Год выпуска: 2011
Мировая премьера: 13 августа 2011
Дата выхода DVD: 8 сентября 2011, «CP-Digital»
Продолжительность: 00:56:46
Перевод: Профессиональный (дублированный) [Лицензия]
Cубтитры: русские, английские, арабские, чешские, греческие, иврит, мадьярские
Оригинальная аудиодорожка: английский
Режиссер: Спайк Брандт / Spike Brandt
В ролях: Грей ДеЛайл, Джо Аляски, Майкл Гоф, Роб Полсен, Тодд Стэшвик, Фрэнсис Конрой, Лорейн Ньюмен, Стивен Рут, Кэт Сауси
Описание: Том и Джерри парят над радугой и двигаются вниз по дороге из желтого кирпича и на пути им встречаются всем знакомые анимированные персонажи и пересказ классической истории.
Бонусы: Полнометражная стилизованная (классическая) версия мультфильма, Узнайте как летает воздушный шар, Научитесь делать торнадо в бутылке

Качество: DVD5 R5
Формат: DVD-Video
Видео кодек: MPEG2
Аудио кодек: AC3
Видео: PAL 16:9 (720x576(0.417)) MPEG Video, 25,000 кадр/сек, 4324 Кбит/сек
Аудио #1: English (Dolby AC3, 6 ch) 384 Кбит/сек, 48,0 КГц
Аудио #2: Czech(Ceske) (Dolby AC3, 2 ch) 192 Кбит/сек, 48,0 КГц
Аудио #3: Greek (Dolby AC3, 2 ch) 192 Кбит/сек, 48,0 КГц
Аудио #4: Magyar Dolby AC3, 2 ch) 192 Кбит/сек, 48,0 КГц
Аудио #5: Russian Dolby AC3, 2 ch) 192 Кбит/сек, 48,0 КГц



Title: Рабочий
Size: 4.36 Gb ( 4 571 060 KBytes ) - DVD-5
Enabled regions: 1, 2, 3, 4, 5, 6, 7, 8

VTS_01 :
Play Length: 00:56:46+00:06:31
Video: PAL 16:9 (720x576) VBR, Auto Letterboxed
Audio:
English (Dolby AC3, 6 ch)
Czech(Ceske) (Dolby AC3, 2 ch)
Greek (Dolby AC3, 2 ch)
Magyar (Dolby AC3, 2 ch)
Russian (Dolby AC3, 2 ch)
English (Dolby AC3, 2 ch)
English (Dolby AC3, 6 ch)
Subtitles:
English
Arabic
Czech(Ceske)
Greek
Hebrew
Magyar
Russian

VTS_02 :
Play Length: 00:00:10+00:00:12
Video: PAL 16:9 (720x576) VBR, Auto Letterboxed
Audio:
Not specified (Dolby AC3, 6 ch)
Subtitles:
Not specified
Общее
Полное имя : G:\Новинки 2011\Tom.i.Dzeri.i.volshebnik.iz.stranni.Oz.2011.DVD5\VIDEO_TS\VTS_01_2.VOB
Формат : MPEG-PS
Размер файла : 1024 Мбайт
Продолжительность : 25 м.
Общий поток : 5587 Кбит/сек

Видео
Идентификатор : 224 (0xE0)
Формат : MPEG Video
Версия формата : Version 2
Профиль формата : Main@Main
Параметр BVOP формата : Да
Параметр матрицы формата : Выборочная
Параметр GOP формата : M=2, N=12
Продолжительность : 25 м.
Вид битрейта : Переменный
Битрейт : 4324 Кбит/сек
Максимальный битрейт : 7500 Кбит/сек
Ширина : 720 пикселей
Высота : 576 пикселей
Соотношение сторон : 16:9
Частота кадров : 25,000 кадров/сек
Стандарт вещания : PAL
Цветовое пространство : YUV
Субдискретизация насыщенности : 4:2:0
Битовая глубина : 8 бит
Тип развёртки : Чересстрочная
Порядок развёртки : Верхнее поле первое
Метод сжатия : С потерями
Бит/(Пиксели*Кадры) : 0.417
Размер потока : 792 Мбайт (77%)

Аудио #1
Идентификатор : 189 (0xBD)-128 (0x80)
Формат : AC-3
Формат/Информация : Audio Coding 3
Расширение режима : CM (complete main)
Режим смешивания : DVD-Video
Продолжительность : 25 м.
Вид битрейта : Постоянный
Битрейт : 384 Кбит/сек
Каналы : 6 каналов
Расположение каналов : Front: L C R, Side: L R, LFE
Частота : 48,0 КГц
Битовая глубина : 16 бит
Метод сжатия : С потерями
Задержка видео : -88 мс.
Размер потока : 70,4 Мбайт (7%)

Аудио #2
Идентификатор : 189 (0xBD)-129 (0x81)
Формат : AC-3
Формат/Информация : Audio Coding 3
Расширение режима : CM (complete main)
Режим смешивания : DVD-Video
Продолжительность : 25 м.
Вид битрейта : Постоянный
Битрейт : 192 Кбит/сек
Каналы : 2 канала
Расположение каналов : Front: L R
Частота : 48,0 КГц
Битовая глубина : 16 бит
Метод сжатия : С потерями
Задержка видео : -56 мс.
Размер потока : 35,2 Мбайт (3%)

Аудио #3
Идентификатор : 189 (0xBD)-130 (0x82)
Формат : AC-3
Формат/Информация : Audio Coding 3
Расширение режима : CM (complete main)
Режим смешивания : DVD-Video
Продолжительность : 25 м.
Вид битрейта : Постоянный
Битрейт : 192 Кбит/сек
Каналы : 2 канала
Расположение каналов : Front: L R
Частота : 48,0 КГц
Битовая глубина : 16 бит
Метод сжатия : С потерями
Задержка видео : -56 мс.
Размер потока : 35,2 Мбайт (3%)

Аудио #4
Идентификатор : 189 (0xBD)-131 (0x83)
Формат : AC-3
Формат/Информация : Audio Coding 3
Расширение режима : CM (complete main)
Режим смешивания : DVD-Video
Продолжительность : 25 м.
Вид битрейта : Постоянный
Битрейт : 192 Кбит/сек
Каналы : 2 канала
Расположение каналов : Front: L R
Частота : 48,0 КГц
Битовая глубина : 16 бит
Метод сжатия : С потерями
Задержка видео : -56 мс.
Размер потока : 35,2 Мбайт (3%)

Аудио #5
Идентификатор : 189 (0xBD)-132 (0x84)
Формат : AC-3
Формат/Информация : Audio Coding 3
Профиль формата : Dolby Digital
Расширение режима : CM (complete main)
Режим смешивания : DVD-Video
Продолжительность : 25 м.
Вид битрейта : Постоянный
Битрейт : 192 Кбит/сек
Каналы : 2 канала
Расположение каналов : Front: L R
Частота : 48,0 КГц
Битовая глубина : 16 бит
Метод сжатия : С потерями
Задержка видео : -56 мс.
Размер потока : 35,2 Мбайт (3%)

Текст #1
Идентификатор : 189 (0xBD)-32 (0x20)
Формат : RLE
Формат/Информация : Run-length encoding
Режим смешивания : DVD-Video
Продолжительность : 25 м.
Задержка видео : 5 с. 600 мс.

Текст #2
Идентификатор : 189 (0xBD)-33 (0x21)
Формат : RLE
Формат/Информация : Run-length encoding
Режим смешивания : DVD-Video
Продолжительность : 25 м.
Задержка видео : 5 с. 600 мс.

Текст #3
Идентификатор : 189 (0xBD)-36 (0x24)
Формат : RLE
Формат/Информация : Run-length encoding
Режим смешивания : DVD-Video
Продолжительность : 25 м.
Задержка видео : 5 с. 600 мс.

Текст #4
Идентификатор : 189 (0xBD)-37 (0x25)
Формат : RLE
Формат/Информация : Run-length encoding
Режим смешивания : DVD-Video
Продолжительность : 25 м.
Задержка видео : 5 с. 640 мс.

Текст #5
Идентификатор : 189 (0xBD)-38 (0x26)
Формат : RLE
Формат/Информация : Run-length encoding
Режим смешивания : DVD-Video
Продолжительность : 25 м.
Задержка видео : 5 с. 600 мс.

Текст #6
Идентификатор : 189 (0xBD)-34 (0x22)
Формат : RLE
Формат/Информация : Run-length encoding
Режим смешивания : DVD-Video

Текст #7
Идентификатор : 189 (0xBD)-35 (0x23)
Формат : RLE
Формат/Информация : Run-length encoding
Режим смешивания : DVD-Video










pb.wtf



Скачать Том и Джерри и волшебник из страны Оз через торрент http://i2.imageban.ru/out/2011/10/10/4e0ef4c902e628147100430c757f9d9b.jpg Скачать фильм Том и Джерри и волшебник из страны Оз через торрент бесплантно в хорошем качестве Описание: Том и Джерри парят над радугой и двигаются вниз по дороге из желтого кирпича и на пути им встречаются всем знакомые анимированные ... 4.9 10 8
Info! Золотая раздача, скачанное не засчитывается.
Торрент: Зарегистрирован [2011-10-10 20:36] · скачан: 136 раз
Статус: √ проверено
Размер: 4.36 GB
Как cкачать? Как скачать Том и Джерри и волшебник из страны Оз через торрент | UTorrent

28-11-2019 20:33  

Отключить всю рекламу на сайте

10-10-2011 22:45 Том и Джерри и волшебник из страны Оз Скачать торрент  

Том и Джерри, да.
Но уже давно не те.
унылая музыка, унылый юмор, унылый звук, унылая и посредственная сюжетная составляющая.pb.wtf



    Дорогой пользователь! Огромная просьба, поблагодарите релизера, оцените раздачу и оставьте свои комментарий, если Вы скачали Том и Джерри и волшебник из страны Оз через торрент бесплатно! Внесите свою лепту в развитие PiratBit!
    Комментировать посты могут только пользователи прошедшие не сложную регистрацию
    Показать сообщения:    

    Том и Джерри и волшебник из страны Оз через торрент
    Скачать бесплатно Том и Джерри и волшебник из страны Оз
    Том и Джерри и волшебник из страны Оз скачать торрент
    Том и Джерри и волшебник из страны Оз смотреть онлайн
    Cкачать фильм Том и Джерри и волшебник из страны Оз бесплатно
    Том и Джерри и волшебник из страны Оз скачать торрент в хорошем качестве
    Том и Джерри и волшебник из страны Оз смотреть онлайн бесплатно в хорошем качестве


    Вы не можете начинать темы
    Вы не можете отвечать на сообщения
    Вы не можете редактировать свои сообщения
    Вы не можете удалять свои сообщения
    Вы не можете голосовать в опросах
    Вы не можете прикреплять файлы к сообщениям
    Вы можете скачивать файлы