2 сезон

iTunes

1 сезон

1

iTunes

iTunes

iTunes

1 сезон

RePack

30

ИГРА 18+

pack

ВАЖНО

!!Акция!!

Alien_RageХит недели

RePack

MK11
pack

Забери бонус

RePack

jed

!!Акция!!

Alien_Rage

RePack

fifa19

RePack

Assassins Creed: Odyssey

RePack

NEED FOR SPEED™ PAYBACK

4 сезон

9 сезон

Бесстыжие 9 сезон

Все сериалы

все сериалы на PB.wtf

RePack

FAR CRY 5
  

Зеленый Фонарь / Green Lantern (Мартин Кэмпбелл / Martin Campbell) [2011 г., Фантастика, боевик, триллер, криминал, BDRip 1080p] [Театральная версия / Theatrical Version] pb.wtf

Зеленый Фонарь через торрент pb.wtf

Размер: 11.92 GB | Добавлен: 9 лет назад | Торрент скачан:137 раз
Скачать  

11-10-2011 23:44 Зеленый Фонарь Скачать торрент  

Зеленый Фонарь / Green Lantern«Во тьме ночной, при свете дня...»
Год выпуска: 2011
Страна: США
Жанр: Фантастика, боевик, триллер, криминал
Продолжительность: 01:54:01

  • Перевод: Профессиональный (дубляж) (в конце отсутствует перевод диктора, переведено сабами);
  • Формат субтитров: srt, pgs
  • Оригинальная аудиодорожка: Английская

Режиссер: Мартин Кэмпбелл / Martin Campbell
В ролях: Райан Рейнольдс, Блейк Лайвли, Питер Сарсгаард, Марк Стронг, Темуэра Моррисон, Дженна Крэйг, Джон Тенни, Майк Дойл, Гэтлин Гриффит, Николас Джендл
Описание: Во Вселенной, столь же бесконечной, сколь и загадочной, многие века существовал отряд воинов, обладающих огромной силой. Защитники мира и справедливости, их называют Корпус Зеленых Фонарей. Братство воинов, поклявшихся защищать межгалактический закон, где каждый из них носит кольцо, дарующее ему сверхспособности. Но когда новый враг по имени Параллакс угрожает нарушить равновесие во Вселенной, их судьба и судьба Земли оказывается в руках новобранца, первого человека в истории отряда — Хэла Джордана.
Хэл — дерзкий и талантливый летчик-испытатель, но Зеленые Фонари не испытывают доверия и уважения к человечеству, ведь людям до этого ни разу не удалось обуздать безграничную силу кольца. Но Хэл — как недостающий кусочек мозаики, и вместе с решимостью и силой воли он обладает тем, чего не было ни у одного звездного воителя, — человечностью. Если при поддержке напарника и подруги детства Кэрол Феррис (Блейк Лайвли) Хэл сможет быстро научиться управлять мощью кольца и найдет мужество преодолеть свои страхи, он сможет не только доказать, что он является ключом к победе над Параллаксом… но и станет величайшим Зеленым Фонарем из всех.


  • Тип релиза: BDRip (NiP)
  • Контейнер: MKV
  • Видео кодек: H264 | Аудио кодек: DTS, AC-3
  • Видео: H264 / 11500 kbps / 1920x800 / 23,976 fps / High Profile 4.1
  • Аудио 1: Русский дубляж / Dolby Digital / 5.1 / 448 kbps / 48 kHz
  • Аудио 2: Русский одноголосый (Вячеслав Замез - zamez) / Dolby Digital / 5.1 / 640 kbps / 48 kHz
  • Аудио 3: Английский / DTS / 5.1 / 1536 kbps / 48 kHz
  • Субтитры 1: Русские srt (только надписи и пр.)
  • Субтитры 2: Русские srt (набраны по дубляжу Михаилом Кулистиковым)
  • Субтитры 3: Английские SDH srt
  • Чаптеры: 14 шт.


Complete name : Green.Lantern.2011.BluRay.1080p.x264-NiP.Rus.Eng.mkv
Format : Matroska
File size : 11.9 GiB
Duration : 1h 54mn
Overall bit rate : 15.0 Mbps
Encoded date : UTC 2011-10-11 09:14:34
Writing application : mkvmerge v5.0.1 ('Es ist Sommer') built on Oct 9 2011 11:55:43
Writing library : libebml v1.2.2 + libmatroska v1.3.0

Video
ID : 1
Format : AVC
Format/Info : Advanced Video Codec
Format profile : High@L4.1
Format settings, CABAC : Yes
Format settings, ReFrames : 5 frames
Format settings, GOP : M=1, N=16
Codec ID : V_MPEG4/ISO/AVC
Duration : 1h 54mn
Bit rate : 11.5 Mbps
Width : 1 920 pixels
Height : 800 pixels
Display aspect ratio : 2.40:1
Frame rate : 23.976 fps
Color space : YUV
Chroma subsampling : 4:2:0
Bit depth : 8 bits
Scan type : Progressive
Bits/(Pixel*Frame) : 0.312
Stream size : 8.92 GiB (75%)
Title : Green.Lantern.2011.BluRay.1080p.x264-NiP.Rus.Eng
Writing library : x264 core 118 r2085 8a62835
Encoding settings : cabac=1 / ref=5 / deblock=1:-3:-3 / analyse=0x3:0x113 / me=umh / subme=11 / psy=1 / psy_rd=1.10:0.00 / mixed_ref=1 / me_range=48 / chroma_me=1 / trellis=2 / 8x8dct=1 / cqm=0 / deadzone=21,11 / fast_pskip=0 / chroma_qp_offset=-2 / threads=12 / sliced_threads=0 / nr=0 / decimate=0 / interlaced=0 / bluray_compat=0 / constrained_intra=0 / bframes=9 / b_pyramid=2 / b_adapt=2 / b_bias=0 / direct=3 / weightb=1 / open_gop=0 / weightp=2 / keyint=250 / keyint_min=23 / scenecut=40 / intra_refresh=0 / rc_lookahead=60 / rc=2pass / mbtree=0 / bitrate=11500 / ratetol=1.0 / qcomp=0.70 / qpmin=0 / qpmax=69 / qpstep=4 / cplxblur=20.0 / qblur=0.5 / vbv_maxrate=50000 / vbv_bufsize=62500 / nal_hrd=none / ip_ratio=1.30 / pb_ratio=1.20 / aq=2:1.00
Language : English
Matrix coefficients : BT.709-5, BT.1361, IEC 61966-2-4 709, SMPTE RP177

Audio #1
ID : 2
Format : AC-3
Format/Info : Audio Coding 3
Mode extension : CM (complete main)
Codec ID : A_AC3
Duration : 1h 54mn
Bit rate mode : Constant
Bit rate : 448 Kbps
Channel(s) : 6 channels
Channel positions : Front: L C R, Side: L R, LFE
Sampling rate : 48.0 KHz
Bit depth : 16 bits
Compression mode : Lossy
Stream size : 365 MiB (3%)
Title : Dub
Language : Russian

Audio #2
ID : 3
Format : DTS
Format/Info : Digital Theater Systems
Codec ID : A_DTS
Duration : 1h 54mn
Bit rate mode : Constant
Bit rate : 1 510 Kbps
Channel(s) : 6 channels
Channel positions : Front: L C R, Side: L R, LFE
Sampling rate : 48.0 KHz
Bit depth : 24 bits
Compression mode : Lossy
Stream size : 1.20 GiB (10%)
Title : VO zamez
Language : Russian

Audio #3
ID : 4
Format : DTS
Format/Info : Digital Theater Systems
Codec ID : A_DTS
Duration : 1h 54mn
Bit rate mode : Constant
Bit rate : 1 510 Kbps
Channel(s) : 6 channels
Channel positions : Front: L C R, Side: L R, LFE
Sampling rate : 48.0 KHz
Bit depth : 24 bits
Compression mode : Lossy
Stream size : 1.20 GiB (10%)
Language : English

Text #1
ID : 5
Format : UTF-8
Codec ID : S_TEXT/UTF8
Codec ID/Info : UTF-8 Plain Text
Title : Forced
Language : Russian

Text #2
ID : 6
Format : UTF-8
Codec ID : S_TEXT/UTF8
Codec ID/Info : UTF-8 Plain Text
Title : Full
Language : Russian

Text #3
ID : 7
Format : UTF-8
Codec ID : S_TEXT/UTF8
Codec ID/Info : UTF-8 Plain Text
Language : English

Menu
00:00:00.000 : :00:00:00.000
00:06:37.814 : :00:06:37.814
00:16:36.078 : :00:16:36.078
00:24:36.141 : :00:24:36.141
00:33:13.909 : :00:33:13.909
00:40:33.806 : :00:40:33.806
00:48:23.818 : :00:48:23.818
00:57:05.464 : :00:57:05.464
01:04:24.527 : :01:04:24.527
01:15:01.831 : :01:15:01.831
01:23:11.486 : :01:23:11.486
01:34:29.455 : :01:34:29.455
01:42:22.762 : :01:42:22.762
01:47:15.346 : :01:47:15.346

pb.wtf



Скачать Зеленый Фонарь через торрент http://lostpic.net/images/aed279132a1ccd08a5111d5dcea181cf.jpg Скачать фильм Зеленый Фонарь через торрент бесплантно в хорошем качестве Описание: Во Вселенной, столь же бесконечной, сколь и загадочной, многие века существовал отряд воинов, обладающих огромной силой. ... 10 10 3
Info! Золотая раздача, скачанное не засчитывается.
Торрент: Зарегистрирован [2011-10-11 23:44] · скачан: 137 раз
Статус: √ проверено
Размер: 11.92 GB
Как cкачать? Как скачать Зеленый Фонарь через торрент | qTorrent

% Раздел Тема Автор DL S | L
Мультсериалы [ 10.01 GB ] Зеленый Фонарь: Анимационный сериал / Green Lantern: The Animated Series / Сезон: 1 / Серии: 1-26 из 26 + 5 бонусов [2009-2013 мультфильм DVDRip-AVC by keeper.52] DUB + Original + Sub keeper.52 Скачать
1 | 0
Мультсериалы [ 10.06 GB ] Зеленый Фонарь: Анимационный сериал / Green Lantern: The Animated Series / Сезон: 1 / Серии: 1-26 из 26 + 5 бонусов [2009-2013 мультфильм DVDRip by keeper.52] DUB + Original + Sub keeper.52 Скачать
1 | 0
Фильмы (HD 720p, 1080p) (48-60 fps) [ 4.79 GB ] Зеленый Фонарь / Green Lantern [2011 BDRip 720p ] 60 fps -=DANTE=- Скачать
1 | 0
Мультсериалы [ 4.84 GB ] Зеленый Фонарь: Анимационный сериал / Green Lantern: The Animated Series / Сезон: 1 / Серии: 1-26 из 26 [2011-12 мультфильм WEB-DL 720p] Dub eng Тёмыч96 Скачать
1 | 0
3D Фильмы [ 3.55 GB ] Зеленый Фонарь в 3D / Green Lantern in 3D [2011 BDRip 720p лицензия] Анаглиф slaventi-69 Скачать
1 | 0
Фильмы (Blu-ray, BD-Remux, HDDVD) [ 20.25 GB ] Зеленый Фонарь / Green Lantern [2011 BDRemux 1080p лицензия] Alex_E Скачать
1 | 0
Фильмы 2011 [ 2.18 GB ] Зеленый Фонарь / Green Lantern [2011 HDRip DUB лицензия] clopik Скачать
2 | 0


Последний раз редактировалось: diletant (2011-10-12 09:08), всего редактировалось 1 раз

28-11-2019 20:33  

Отключить всю рекламу на сайте

12-10-2011 04:52 Зеленый Фонарь Скачать торрент  

В чём отличия от обыкновенногго фильма?pb.wtf



12-10-2011 07:31 Зеленый Фонарь Скачать торрент  

последний скрин зачотный)pb.wtf



12-10-2011 08:56 Зеленый Фонарь Скачать торрент  

hunter_94 писал(а):

В чём отличия от обыкновенногго фильма?

да ни в чем)...это тот же фильм :king:pb.wtf



02-11-2011 17:07 Зеленый Фонарь Скачать торрент  

думал фильм на один раз, но три раза смотрел ))) (сам, с женой, потом с друзьями) последний раз было уж совсем как-то не хорошоpb.wtf



11-12-2011 17:19 Зеленый Фонарь Скачать торрент  

Во тьме ночной, при свете дня, полностью ломай меня!pb.wtf



    Дорогой пользователь! Огромная просьба, поблагодарите релизера, оцените раздачу и оставьте свои комментарий, если Вы скачали Зеленый Фонарь через торрент бесплатно! Внесите свою лепту в развитие PiratBit!
    Комментировать посты могут только пользователи прошедшие не сложную регистрацию
    Показать сообщения:    

    Зеленый Фонарь через торрент
    Скачать бесплатно Зеленый Фонарь
    Зеленый Фонарь скачать торрент
    Зеленый Фонарь смотреть онлайн
    Cкачать фильм Зеленый Фонарь бесплатно
    Зеленый Фонарь скачать торрент в хорошем качестве
    Зеленый Фонарь смотреть онлайн бесплатно в хорошем качестве


    Вы не можете начинать темы
    Вы не можете отвечать на сообщения
    Вы не можете редактировать свои сообщения
    Вы не можете удалять свои сообщения
    Вы не можете голосовать в опросах
    Вы не можете прикреплять файлы к сообщениям
    Вы можете скачивать файлы