Ссылка на приватное зеркало нашего сайта всего за 1$. Внимание количество ограничено!!!

2 сезон

iTunes

1 сезон

1

2 сезон

2 сезон

iTunes

1 сезон

RePack

30

Ultimate

ВАЖНО

ИГРА 18+

pack

RePack

MK11
pack

Забери бонус

RePack

jed

!!Акция!!

Alien_Rage

RePack

fifa19

RePack

Assassins Creed: Odyssey

RePack

NEED FOR SPEED™ PAYBACK

4 сезон

9 сезон

Бесстыжие 9 сезон

Все сериалы

все сериалы на PB.wtf

RePack

FAR CRY 5
  

Как преуспеть в Америке / How to Make It in America Сезон: 2 / Серии: 8 из 8(Джулиан Фарино)[2011 г., комедия, HDTVRip](Кубик в Кубе) pb.wtf

Как преуспеть в Америке через торрент pb.wtf

Размер: 2.2 GB | Добавлен: 8 лет 11 мес. назад | Торрент скачан:7 раз
Скачать  

13-10-2011 20:52 Как преуспеть в Америке Скачать торрент  

Как преуспеть в Америке / How to Make It in America
Год выпуска: 2011
Страна: USA
Жанр: Комедия
Продолжительность: ~00:25:00
Перевод: Профессиональный двухголосый закадровый (Кубик в кубе)
Субтитры: Отсутствуют
Режиссёр: Джулиан Фарино
В ролях: Брайан Гринберг (Bryan Greenberg), Виктор Расук (Victor Rasuk), Эдди Кэй Томас (Eddie Kaye Thomas), Луис Гузман (Luis Guzmán) и др.
Описание: Cериал о двух молодых бизнесменах, Кэме и Бене, стремящихся к американской мечте. Они разбираются в модных шмотках, ходят по стильным тусовкам, но сами пока не нашли себя в жизни. Они перебиваются тем, что перепродают нелегально всякие стильные эксклюзивные шмотки, чем и зарабатывают на жизнь.
Качество: HDTV
Формат: AVI
Видео кодек: XviD
Аудио кодек: MP3
Видео: 624x352 (16:9), 23.976 fps, XviD MPEG-4 ~952 kbps avg, 0.19 bit/pixel
Аудио Rus: 48 kHz, MPEG Layer 3, 2 ch, ~224 kbps avg
Аудио Eng: 48 kHz, MPEG Layer 3, 2 ch, ~128 kbps avg

Сэмпл: http://multi-up.com/570330

Предупреждение:
В фильме присутствует нецензурная лексика
Релиз от: Кубик в кубе
Перевод: Jeketeur
Общее
Полное имя : G:\Video\series\Раздачи\How to Make It in America Season 2 Kybik v Kybe\How.to.Make.It.in.America.s02e01.rus.eng.Kybik.v.Kybe.avi
Формат : AVI
Формат/Информация : Audio Video Interleave
Размер файла : 281 Мбайт
Продолжительность : 29 м.
Общий поток : 1339 Кбит/сек
Программа кодирования : VirtualDubMod 1.5.10.2 (build 2540/release)
Библиотека кодирования : VirtualDubMod build 2540/release

Видео
Идентификатор : 0
Формат : MPEG-4 Visual
Профиль формата : Advanced Simple@L5
Параметр BVOP формата : 2
Параметр QPel формата : Нет
Параметр GMC формата : Без точки перехода
Параметр матрицы формата : Default (H.263)
Идентификатор кодека : XVID
Идентификатор кодека/Подсказка : XviD
Продолжительность : 29 м.
Битрейт : 952 Кбит/сек
Ширина : 624 пикс.
Высота : 352 пикс.
Соотношение сторон : 16:9
Частота кадров : 23,976 кадр/сек
Цветовое пространство : YUV
Подвыборка цветности : 4:2:0
Битовая глубина : 8 бит
Тип развёртки : Прогрессивная
Метод сжатия : С потерями
Бит/(Пиксели*Кадры) : 0.181
Размер потока : 200 Мбайт (71%)
Библиотека кодирования : XviD 70

Аудио #1
Идентификатор : 1
Формат : MPEG Audio
Версия формата : Version 1
Профиль формата : Layer 3
Режим : Joint stereo
Расширение режима : MS Stereo
Идентификатор кодека : 55
Идентификатор кодека/Подсказка : MP3
Продолжительность : 29 м.
Вид битрейта : Постоянный
Битрейт : 224 Кбит/сек
Каналы : 2 канала
Частота : 48,0 КГц
Метод сжатия : С потерями
Размер потока : 47,0 Мбайт (17%)
Выравнивание : Соединение по промежуткам
Продолжительность промежутка : 42 мс. (1,00 видеокадр)
Время предзагрузки промежутка : 504 ms
Библиотека кодирования : LAME3.98r
Настройки программы : -m j -V 4 -q 2 -lowpass 19.4 -b 224

Аудио #2
Идентификатор : 2
Формат : MPEG Audio
Версия формата : Version 1
Профиль формата : Layer 3
Идентификатор кодека : 55
Идентификатор кодека/Подсказка : MP3
Продолжительность : 29 м.
Вид битрейта : Переменный
Битрейт : 146 Кбит/сек
Каналы : 2 канала
Частота : 48,0 КГц
Метод сжатия : С потерями
Размер потока : 30,6 Мбайт (11%)
Выравнивание : Соединение по промежуткам
Продолжительность промежутка : 24 мс. (0,58 видеокадр)
Время предзагрузки промежутка : 381 ms

Внимание! Раздача ведётся путём добавления новых серий; при каждом добавлении создётся новый торрент. Чтобы начать докачку новой серии, пользователям необходимо сделать следующее:
(1) остановить скачивание,
(2) удалить старый торрент у себя из клиента (старые серии удалять не надо),
(3) скачать новый торрент и запустить его у себя в клиенте вместо старого, при этом указать клиенту путь в старую папку куда и должно происходить скачивание новых серий.

Ваш клиент при этом должен произвести хеширование (проверку) старой папки (если не производит сам - помогите ему сделать это), и будет докачивать только те серии которых у вас ещё нет. Старые серии при этом не удаляются, а продолжают раздаваться!

Eсли вы уже удалили старые серии, то предотвратить повторную закачку старых серий можно, отжав галочку в соответсвующих местах при запуске нового торрента. По возможности, желательно не удалять старые серии как можно дольше чтобы релизёр не столько продолжал раздавать старые серии, а смог сконцентрироваться на новых.
Добавлена 8 серия!
Сезон окончен!
pb.wtf



Скачать Как преуспеть в Америке через торрент http://pic.kartinco.top/images/2011/csixnswzmv.jpg Скачать фильм Как преуспеть в Америке через торрент бесплантно в хорошем качестве Описание: Cериал о двух молодых бизнесменах, Кэме и Бене, стремящихся к американской мечте. Они разбираются в модных шмотках, ходят по ... 10 10 1
Info! Золотая раздача, скачанное не засчитывается.
Торрент: Зарегистрирован [2011-12-12 21:14] · скачан: 7 раз
Статус: √ проверено
Размер: 2.2 GB
Как cкачать? Как скачать Как преуспеть в Америке через торрент | qTorrent



Последний раз редактировалось: Messa-fan (2011-12-12 21:14), всего редактировалось 8 раз(а)

28-11-2019 20:33  

Отключить всю рекламу на сайте

14-10-2011 00:34 Как преуспеть в Америке Скачать торрент  

описание убило)) Они с другом так мечтали о мечте....pb.wtf



14-10-2011 05:15 Как преуспеть в Америке Скачать торрент  

прикольный сериальчикpb.wtf



27-11-2011 18:10 Как преуспеть в Америке Скачать торрент  

Добавлена 6 серия!pb.wtf



03-12-2011 22:09 Как преуспеть в Америке Скачать торрент  

Добавлена 7 серия!pb.wtf



12-12-2011 21:14 Как преуспеть в Америке Скачать торрент  

Добавлена 8 серия!
Сезон окончен!
pb.wtf



    Дорогой пользователь! Огромная просьба, поблагодарите релизера, оцените раздачу и оставьте свои комментарий, если Вы скачали Как преуспеть в Америке через торрент бесплатно! Внесите свою лепту в развитие PiratBit!
    Комментировать посты могут только пользователи прошедшие не сложную регистрацию
    Показать сообщения:    

    Как преуспеть в Америке через торрент
    Скачать бесплатно Как преуспеть в Америке
    Как преуспеть в Америке скачать торрент
    Как преуспеть в Америке смотреть онлайн
    Cкачать фильм Как преуспеть в Америке бесплатно
    Как преуспеть в Америке скачать торрент в хорошем качестве
    Как преуспеть в Америке смотреть онлайн бесплатно в хорошем качестве


    Вы не можете начинать темы
    Вы не можете отвечать на сообщения
    Вы не можете редактировать свои сообщения
    Вы не можете удалять свои сообщения
    Вы не можете голосовать в опросах
    Вы не можете прикреплять файлы к сообщениям
    Вы можете скачивать файлы