Ссылка на приватное зеркало нашего сайта всего за 1$. Внимание количество ограничено!!!

2 сезон

iTunes

1 сезон

1

2 сезон

2 сезон

iTunes

1 сезон

RePack

30

Новинка

ВАЖНО

ИГРА 18+

pack

RePack

MK11
pack

Забери бонус

RePack

jed

!!Акция!!

Alien_Rage

RePack

fifa19

RePack

Assassins Creed: Odyssey

RePack

NEED FOR SPEED™ PAYBACK

4 сезон

9 сезон

Бесстыжие 9 сезон

Все сериалы

все сериалы на PB.wtf

RePack

FAR CRY 5
  

Вход / Getting In (Robby D, Digital Playground) [2011 г., Feature, 720p, BDRip] pb.wtf

Вход через торрент pb.wtf

Размер: 4.37 GB | Добавлен: 9 лет 1 мес. назад | Торрент скачан:188 раз
Скачать  

17-10-2011 13:15 Вход Скачать торрент  

Getting In / Вход

Год производства: 2011 г.
Страна: USA
Жанр: Feature
Продолжительность: 01:36:18
Режиссер: Robby D
Студия: Digital Playground
Язык: Английский
В ролях: Raven Alexis, Brooke Haven, Lou Charmelle, Charlie Chase, Erik Everhard, Mick Blue, Scott Nails, Manuel Ferrara.
Описание: Scheming out of work writers search for the perfect job where they can use their talents. Writing nasty porn scripts is the perfect solution. These writers are getting paid and getting laid! Their sexy friend Raven Alexis helps bring them play out their horny tales of sex and seduction.
Доп. информация: http://www.adultdvdempire.com/1584490/getting-in-dv...porn-movies.html
Релиз группы: DPXXXHD
Тип HD видео: 720p
Качество видео: BDRip
Формат видео: MKV
Видео кодек: H.264/AVC
Аудио кодек: AC3
Видео: 1280x720, 23,976 fps, ~5860 kbps
Аудио: 48 kHz, 6 ch, 640 kbps

Код:

Общее
Уникальный идентификатор         : 191498927802357516948243748065704153143 (0x90115A188F721CD993969B81B4CC1037)
Полное имя                       : F:\...dp-getting.in.720p.x264.mkv
Формат                           : Matroska
Версия формата                   : Version 2
Размер файла                     : 4,37 Гбайт
Продолжительность                : 1 ч. 36 м.
Общий поток                      : 6501 Кбит/сек
Дата кодирования                 : UTC 2011-10-13 18:01:14
Программа кодирования            : mkvmerge v4.9.1 ('Ich will') built on Jul 11 2011 23:53:15
Библиотека кодирования           : libebml v1.2.1 + libmatroska v1.1.1
Видео
Идентификатор                    : 1
Формат                           : AVC
Формат/Информация                : Advanced Video Codec
Профиль формата                  : High@L4.1
Параметр CABAC формата           : Да
Параметр ReFrames формата        : 5 кадров
Идентификатор кодека             : V_MPEG4/ISO/AVC
Продолжительность                : 1 ч. 36 м.
Битрейт                          : 5860 Кбит/сек
Ширина                           : 1280 пикселей
Высота                           : 720 пикселей
Соотношение сторон               : 16:9
Частота кадров                   : 23,976 кадра/сек
Цветовое пространство            : YUV
Субдискретизация насыщенности    : 4:2:0
Битовая глубина                  : 8 бит
Тип развёртки                    : Прогрессивная
Бит/(Пиксели*Кадры)              : 0.265
Размер потока                    : 3,86 Гбайт (88%)
Библиотека кодирования           : x264 core 116 r2074 2641b9e
Настройки программы              : cabac=1 / ref=5 / deblock=1:0:0 / analyse=0x3:0x133 / me=umh / subme=7 / psy=1 / psy_rd=1.00:0.00 / mixed_ref=1 / me_range=16 / chroma_me=1 / trellis=1 / 8x8dct=1 / cqm=0 / deadzone=21,11 / fast_pskip=1 / chroma_qp_offset=-2 / threads=12 / sliced_threads=0 / nr=0 / decimate=1 / interlaced=0 / bluray_compat=0 / constrained_intra=0 / bframes=3 / b_pyramid=0 / b_adapt=1 / b_bias=0 / direct=1 / weightb=1 / open_gop=0 / weightp=2 / keyint=250 / keyint_min=23 / scenecut=40 / intra_refresh=0 / rc_lookahead=40 / rc=2pass / mbtree=1 / bitrate=5860 / ratetol=1.0 / qcomp=0.60 / qpmin=10 / qpmax=51 / qpstep=4 / cplxblur=20.0 / qblur=0.5 / ip_ratio=1.40 / aq=1:1.00
Аудио
Идентификатор                    : 2
Формат                           : AC-3
Формат/Информация                : Audio Coding 3
Расширение режима                : CM (complete main)
Идентификатор кодека             : A_AC3
Продолжительность                : 1 ч. 36 м.
Вид битрейта                     : Постоянный
Битрейт                          : 640 Кбит/сек
Каналы                           : 6 каналов
Расположение каналов             : Front: L C R, Side: L R, LFE
Частота                          : 48,0 КГц
Битовая глубина                  : 16 бит
Метод сжатия                     : С потерями
Размер потока                    : 441 Мбайт (10%)
Язык                             : English

pb.wtf



pack Скачать Вход через торрент http://i30.fastpic.ru/big/2011/1014/52/60f88a00e0e77ad05cb74599807cc052.jpg Скачать фильм Вход через торрент бесплантно в хорошем качестве Описание: Scheming out of work writers search for the perfect job where they can use their talents. Writing nasty porn scripts is the ... 10 10 1
Info! Золотая раздача, скачанное не засчитывается.
Торрент: Зарегистрирован [2011-10-17 13:15] · скачан: 188 раз
Статус: √ проверено
Размер: 4.37 GB
Как cкачать? Как скачать Вход через торрент | qTorrent

% Раздел Тема Автор DL S | L
Сцены из фильмов и Сайтрипы с русскими актрисами [ 342 MB ] Джанет расположена для тугого входа в неё / Janette gets spread for a hard pounding. [18XGirls] [2014 Teen Hardcore. SATRip] Pir@tya2010 Скачать
1 | 0
Порно фильмы с сюжетом [ 697 MB ] Вход / Getting In [2011 Feature BDRip] compact2010 Скачать
1 | 0

28-11-2019 20:33  

Отключить всю рекламу на сайте

    Дорогой пользователь! Огромная просьба, поблагодарите релизера, оцените раздачу и оставьте свои комментарий, если Вы скачали Вход через торрент бесплатно! Внесите свою лепту в развитие PiratBit!
    Комментировать посты могут только пользователи прошедшие не сложную регистрацию
    Показать сообщения:    

    Вход через торрент
    Скачать бесплатно Вход
    Вход скачать торрент
    Вход смотреть онлайн
    Cкачать фильм Вход бесплатно
    Вход скачать торрент в хорошем качестве
    Вход смотреть онлайн бесплатно в хорошем качестве


    Вы не можете начинать темы
    Вы не можете отвечать на сообщения
    Вы не можете редактировать свои сообщения
    Вы не можете удалять свои сообщения
    Вы не можете голосовать в опросах
    Вы не можете прикреплять файлы к сообщениям
    Вы можете скачивать файлы