1 сезон

3 сезон

iTunes

1

iTunes

MVO

iTunes

13

1 сезон

RePack

30

Deluxe

pack

Лицензия

ВАЖНО

ИГРА 18+

pack

RePack

MK11

RePack

jed

RePack

fifa19

RePack

RDR2

RePack

NEED FOR SPEED™ PAYBACK

4 сезон

9 сезон

Бесстыжие 9 сезон

Все сериалы

все сериалы на PB.wtf

RePack

FAR CRY 5

Anonymous, добрый вечер, мы катастрофически не успеваем собрать деньги на оплату серверов, помогите нам пожалуйста 5,10,15р., для нас важна любая помощь . В качестве благодарности мы отключим Вам всю рекламу на сайте (укажите свой ник в строку Ваше имя)!

×
  
Magnet ссылка

Таможня дает добро / Rien a declarer (Дэни Бун / Dany Boon) [2010, комедия, DVD9] R5 «West Video» pb.wtf

Таможня дает добро через торрент pb.wtf

Размер: 7.13 GB | Добавлен: 9 лет 9 мес. назад | Торрент скачан:46 раз
Скачать  

18-10-2011 22:14 Таможня дает добро Скачать торрент  


Таможня дает добро / Rien a declarer
«Бельгийские вафли vs. лягушачьи лапки»
Страна: Франция
Студия: Canal+ [fr], Centre National de la Cinématographie (CNC), Ciné Cinémas, Les Productions du Ch'timi, Pathé, Région Wallone, SCOPE Invest, Scope Pictures, TF1 Films Production
Жанр: комедия
Год выпуска: 2010
Мировая премьера: 15 декабря 2010
Российская премьера: 14 апреля 2011, «West»
Дата выхода DVD: 18 октября 2011, «West Video»
Продолжительность: 01:43:55
Перевод: Профессиональный (дублированный) [Лицензия]
Cубтитры: русские, украинские
Оригинальная аудиодорожка: французский
Режиссер: Дэни Бун / Dany Boon
В ролях: Бенуа Пульворд, Дэни Бун, Джули Бернард, Карин Виар, Франсуа Дамиенс, Боли Ланнерс, Оливье Гурме, Мишель Вюйермоз
Описание: История двух недотеп-таможенников, француза и бельгийца. Не испытывая особой приязни друг к другу, они, тем не менее, вынуждены стать напарниками и принимать участие в рискованной операции…
Бонусы: Трейлер, анонсы

Качество: DVD9 R5
Формат: DVD-Video
Видео кодек: MPEG2
Аудио кодек: AC3
Видео: PAL 16:9 (720x576(0.743)) MPEG Video, 25,000 кадр/сек, 7700 Кбит/сек
Аудио #1: Russian (Dolby AC3, 6 ch) 384 Кбит/сек, 48,0 КГц
Аудио #2: Francais (Dolby AC3, 6 ch) 384 Кбит/сек, 48,0 КГц



Size: 7.13 Gb ( 7 471 810 KBytes ) - DVD-9
Enabled regions: 1, 2, 3, 4, 5, 6, 7, 8

VTS_01 :
Play Length: 00:00:23
Video: PAL 4:3 (720x576) VBR

VTS_02 :
Play Length: 00:01:47
Video: PAL 16:9 (720x576) VBR, Auto Pan&Scan
Audio:
Russian (Dolby AC3, 2 ch)

VTS_03 :
Play Length: 00:02:07
Video: PAL 16:9 (720x576) VBR, Auto Pan&Scan
Audio:
Russian (Dolby AC3, 2 ch)
Russian (Dolby AC3, 2 ch)

VTS_04 :
Play Length: 00:02:02
Video: PAL 16:9 (720x576) VBR, Auto Pan&Scan
Audio:
Russian (Dolby AC3, 6 ch)
Russian (Dolby AC3, 6 ch)

VTS_05 :
Play Length: 00:01:56
Video: PAL 16:9 (720x576) VBR, Auto Pan&Scan
Audio:
Russian (Dolby AC3, 6 ch)
Russian (Dolby AC3, 6 ch)

VTS_06 :
Play Length: 00:02:25
Video: PAL 16:9 (720x576) VBR, Auto Pan&Scan
Audio:
Russian (Dolby AC3, 2 ch)
English (Dolby AC3, 2 ch)

VTS_07 :
Play Length: 00:01:10
Video: PAL 4:3 (720x576) VBR
Audio:
English (Dolby AC3, 2 ch)
English (Dolby AC3, 2 ch)

VTS_08 :
Play Length: 00:02:27
Video: PAL 16:9 (720x576) VBR, Auto Pan&Scan
Audio:
Russian (Dolby AC3, 2 ch)
Russian (Dolby AC3, 2 ch)

VTS_09 :
Play Length: 01:43:55
Video: PAL 16:9 (720x576) VBR, Auto Pan&Scan, Auto Letterboxed
Audio:
Russian (Dolby AC3, 6 ch)
Francais (Dolby AC3, 6 ch)
Subtitles:
Russian
Ukrainian
Общее
Полное имя : G:\Новинки 2011\Tamozhnja.daet.dobro.2010.DVD9\VIDEO_TS\VTS_09_1.VOB
Формат : MPEG-PS
Размер файла : 1024 Мбайт
Продолжительность : 16 м.
Общий поток : 8643 Кбит/сек

Видео
Идентификатор : 224 (0xE0)
Формат : MPEG Video
Версия формата : Version 2
Профиль формата : Main@Main
Параметр BVOP формата : Да
Параметр матрицы формата : Выборочная
Продолжительность : 16 м.
Битрейт : 7700 Кбит/сек
Ширина : 720 пикселей
Высота : 576 пикселей
Соотношение сторон : 16:9
Частота кадров : 25,000 кадров/сек
Стандарт вещания : PAL
Цветовое пространство : YUV
Субдискретизация насыщенности : 4:2:0
Битовая глубина : 8 бит
Тип развёртки : Чересстрочная
Порядок развёртки : Верхнее поле первое
Метод сжатия : С потерями
Бит/(Пиксели*Кадры) : 0.743
Размер потока : 912 Мбайт (89%)

Аудио #1
Идентификатор : 189 (0xBD)-128 (0x80)
Формат : AC-3
Формат/Информация : Audio Coding 3
Расширение режима : CM (complete main)
Режим смешивания : DVD-Video
Продолжительность : 16 м.
Вид битрейта : Постоянный
Битрейт : 384 Кбит/сек
Каналы : 6 каналов
Расположение каналов : Front: L C R, Side: L R, LFE
Частота : 48,0 КГц
Битовая глубина : 16 бит
Метод сжатия : С потерями
Размер потока : 45,5 Мбайт (4%)

Аудио #2
Идентификатор : 189 (0xBD)-129 (0x81)
Формат : AC-3
Формат/Информация : Audio Coding 3
Расширение режима : CM (complete main)
Режим смешивания : DVD-Video
Продолжительность : 16 м.
Вид битрейта : Постоянный
Битрейт : 384 Кбит/сек
Каналы : 6 каналов
Расположение каналов : Front: L C R, Side: L R, LFE
Частота : 48,0 КГц
Битовая глубина : 16 бит
Метод сжатия : С потерями
Размер потока : 45,5 Мбайт (4%)

Текст #1
Идентификатор : 189 (0xBD)-32 (0x20)
Формат : RLE
Формат/Информация : Run-length encoding
Режим смешивания : DVD-Video

Текст #2
Идентификатор : 189 (0xBD)-33 (0x21)
Формат : RLE
Формат/Информация : Run-length encoding
Режим смешивания : DVD-Video










pb.wtf



Скачать Таможня дает добро через торрент http://i3.imageban.ru/out/2011/10/19/873881a2b6964d3897f89b8c7e53ffa7.jpg Скачать фильм Таможня дает добро через торрент бесплантно в хорошем качестве Описание: История двух недотеп-таможенников, француза и бельгийца. Не испытывая особой приязни друг к другу, они, тем не менее, вынуждены ... 5 10 3
Info! Золотая раздача, скачанное не засчитывается.
Торрент: Зарегистрирован [2011-10-18 22:14] · скачан: 46 раз
Статус: √ проверено
Размер: 7.13 GB
Как cкачать? Как скачать Таможня дает добро через торрент | UTorrent

28-11-2019 20:33  

Отключить всю рекламу на сайте


18-10-2011 22:20 Таможня дает добро Скачать торрент  

когда будет BDRip 720?pb.wtf



20-10-2011 10:06 Таможня дает добро Скачать торрент  

ДАВНО ЖДАЛ. СПАСИБО!pb.wtf



    Дорогой пользователь! Огромная просьба, поблагодарите релизера, оцените раздачу и оставьте свои комментарий, если Вы скачали Таможня дает добро через торрент бесплатно! Внесите свою лепту в развитие PiratBit!
    Комментировать посты могут только пользователи прошедшие не сложную регистрацию
    Показать сообщения:    

    Таможня дает добро через торрент
    Скачать бесплатно Таможня дает добро
    Таможня дает добро скачать торрент
    Таможня дает добро смотреть онлайн
    Cкачать фильм Таможня дает добро бесплатно
    Таможня дает добро скачать торрент в хорошем качестве
    Таможня дает добро смотреть онлайн бесплатно в хорошем качестве


    Вы не можете начинать темы
    Вы не можете отвечать на сообщения
    Вы не можете редактировать свои сообщения
    Вы не можете удалять свои сообщения
    Вы не можете голосовать в опросах
    Вы не можете прикреплять файлы к сообщениям
    Вы можете скачивать файлы