1 сезон

3 сезон

iTunes

1

Line

MVO

iTunes

13

1 сезон

RePack

30

Deluxe

pack

Лицензия

ВАЖНО

ИГРА 18+

pack

RePack

MK11

RePack

jed

RePack

fifa19

RePack

RDR2

RePack

NEED FOR SPEED™ PAYBACK

4 сезон

9 сезон

Бесстыжие 9 сезон

Все сериалы

все сериалы на PB.wtf

RePack

FAR CRY 5

Anonymous, доброе утро, мы катастрофически не успеваем собрать деньги на оплату серверов, помогите нам пожалуйста 5,10,15р., для нас важна любая помощь . В качестве благодарности мы отключим Вам всю рекламу на сайте (укажите свой ник в строку Ваше имя)!

×
  
Magnet ссылка

Сколько у тебя? / What's Your Number? (Марк Майлод / Mark Mylod) [2011, мелодрама, комедия, DVD9] R5 «Двадцатый Век Фокс СНГ» pb.wtf

Сколько у тебя? через торрент pb.wtf

Размер: 5.15 GB | Добавлен: 9 лет 9 мес. назад | Торрент скачан:94 раза
Скачать  

21-10-2011 20:35 Сколько у тебя? Скачать торрент  


Сколько у тебя? / What's Your Number?
«У Элли было двадцать...»
Страна: США
Студия: Contrafilm, Modern Videofilm Inc., New Regency Pictures, Regency Enterprises
Жанр: мелодрама, комедия
Год выпуска: 2011
Мировая премьера: 29 сентября 2011
Российская премьера: 29 сентября 2011, «Двадцатый Век Фокс СНГ»
Дата выхода DVD: 27 октября 2011, «Двадцатый Век Фокс СНГ»
Дата выхода Blu-Ray: Февраль 2012, «Двадцатый Век Фокс СНГ»
Продолжительность: 01:41:53
Перевод: Профессиональный (дублированный) [Лицензия]
Cубтитры: русские
Режиссер: Марк Майлод / Mark Mylod
В ролях: Анна Фэрис, Крис Эванс, Эри Грейнор, Блайт Даннер, Эд Бегли мл., Оливер Джексон-Коэн, Хезер Бёрнс, Элиза Куп, Кейт Симсес, Тика Самптер
Описание: Элли Дарлинг отправляется на поиски лучшего бывшего бойфренда в своей жизни, и это путешествие представляется ей абсолютно необходимым, после того, как она прочитала в журнале статью, предупреждающую о том, что люди, у которых в жизни было более 20 романов, упустили шанс найти свою настоящую любовь.
Элли — настоящая современная героиня. Она умная, привлекательная, забавная и романтичная — девушка, которая пытается понять, кто она на самом деле и с кем ей следует связать свою жизнь. Хотя к поиску бывшего лучшего кавалера ее подстегнула статья в журнале, это означает нечто более важное: у Элли наступил в жизни такой момент, когда она оказалась без мужа, без работы, и ее жизнь совсем не такая, о которой она мечтала. Она оказалась на перепутье, и это заставляет ее задуматься о том, что за последнее десятилетие она могла пропустить что-то, или кого-то, очень значимого в своей жизни.

Бонусы: Фотогалерея, смотрите в кино и на DVD

Качество: DVD9 R5
Формат: DVD-Video
Видео кодек: MPEG2
Аудио кодек: AC3
Видео: PAL 16:9 (720x576(0.464)) MPEG Video, 25,000 кадр/сек, 4806 Кбит/сек
Аудио #1: Russian (Dolby AC3, 6 ch) 384 Кбит/сек, 48,0 КГц
Аудио #2: Russian (DTS, 6 ch) 768 Кбит/сек, 48,0 КГц
Аудио #3: Ukrainian (Dolby AC3, 6 ch) 384 Кбит/сек, 48,0 КГц



Title:
Size: 5.15 Gb ( 5 399 650 KBytes ) - DVD-9
Enabled regions: 1, 2, 3, 4, 5, 6, 7, 8

VTS_01 :
Play Length: 01:41:53
Video: PAL 16:9 (720x576) VBR, Auto Pan&Scan
Audio:
Russian (Dolby AC3, 6 ch)
Russian (DTS, 6 ch)
Ukrainian (Dolby AC3, 6 ch)
Subtitles:
Russian
Russian

VTS_02 :
Play Length: 00:00:27
Video: PAL 16:9 (720x576) VBR, Auto Pan&Scan
Audio:
Russian (Dolby AC3, 6 ch)

VTS_03 :
Play Length: 00:01:02
Video: PAL 16:9 (720x576) VBR, Auto Pan&Scan
Audio:
English (Dolby AC3, 2 ch)
Subtitles:
Russian
Ukrainian

VTS_04 :
Play Length: 00:09:32
Video: PAL 16:9 (720x576) VBR, Auto Pan&Scan
Audio:
Not specified (Dolby AC3, 6 ch)
Not specified (Dolby AC3, 6 ch)
Not specified (Dolby AC3, 2 ch)
Russian (Dolby AC3, 2 ch)
Subtitles:
Russian
Russian
Общее
Полное имя : G:\Новинки 2011\Skol'ko.u.tebja.2011.DVD9\VTS_01_1.VOB
Формат : MPEG-PS
Размер файла : 1024 Мбайт
Продолжительность : 22 м.
Общий поток : 6457 Кбит/сек

Видео
Идентификатор : 224 (0xE0)
Формат : MPEG Video
Версия формата : Version 2
Профиль формата : Main@Main
Параметр BVOP формата : Да
Параметр матрицы формата : Выборочная
Параметр GOP формата : M=2, N=12
Продолжительность : 22 м.
Вид битрейта : Переменный
Битрейт : 4806 Кбит/сек
Максимальный битрейт : 7500 Кбит/сек
Ширина : 720 пикселей
Высота : 576 пикселей
Соотношение сторон : 16:9
Частота кадров : 25,000 кадров/сек
Стандарт вещания : PAL
Цветовое пространство : YUV
Субдискретизация насыщенности : 4:2:0
Битовая глубина : 8 бит
Тип развёртки : Чересстрочная
Порядок развёртки : Верхнее поле первое
Метод сжатия : С потерями
Бит/(Пиксели*Кадры) : 0.464
Размер потока : 762 Мбайт (74%)

Аудио #1
Идентификатор : 189 (0xBD)-128 (0x80)
Формат : AC-3
Формат/Информация : Audio Coding 3
Расширение режима : CM (complete main)
Режим смешивания : DVD-Video
Продолжительность : 22 м.
Вид битрейта : Постоянный
Битрейт : 384 Кбит/сек
Каналы : 6 каналов
Расположение каналов : Front: L C R, Side: L R, LFE
Частота : 48,0 КГц
Битовая глубина : 16 бит
Метод сжатия : С потерями
Размер потока : 60,9 Мбайт (6%)

Аудио #2
Идентификатор : 189 (0xBD)-130 (0x82)
Формат : AC-3
Формат/Информация : Audio Coding 3
Расширение режима : CM (complete main)
Режим смешивания : DVD-Video
Продолжительность : 22 м.
Вид битрейта : Постоянный
Битрейт : 384 Кбит/сек
Каналы : 6 каналов
Расположение каналов : Front: L C R, Side: L R, LFE
Частота : 48,0 КГц
Битовая глубина : 16 бит
Метод сжатия : С потерями
Размер потока : 60,9 Мбайт (6%)

Аудио #3
Идентификатор : 189 (0xBD)-137 (0x89)
Формат : DTS
Формат/Информация : Digital Theater Systems
Режим смешивания : DVD-Video
Продолжительность : 22 м.
Вид битрейта : Постоянный
Битрейт : 755 Кбит/сек
Каналы : 6 каналов
Расположение каналов : Front: L C R, Side: L R, LFE
Частота : 48,0 КГц
Битовая глубина : 24 бит
Метод сжатия : С потерями
Размер потока : 120 Мбайт (12%)

Текст
Идентификатор : 189 (0xBD)-32 (0x20)
Формат : RLE
Формат/Информация : Run-length encoding
Режим смешивания : DVD-Video










pb.wtf



Скачать Сколько у тебя? через торрент http://i2.imageban.ru/out/2011/10/21/11464952388c050154d06dde61a17be7.jpg Скачать фильм Сколько у тебя? через торрент бесплантно в хорошем качестве Описание: Элли Дарлинг отправляется на поиски лучшего бывшего бойфренда в своей жизни, и это путешествие представляется ей абсолютно ... 4.3 10 7
Info! Золотая раздача, скачанное не засчитывается.
Торрент: Зарегистрирован [2011-10-21 20:35] · скачан: 94 раз
Статус: √ проверено
Размер: 5.15 GB
Как cкачать? Как скачать Сколько у тебя? через торрент | UTorrent

28-11-2019 20:33  

Отключить всю рекламу на сайте

    Дорогой пользователь! Огромная просьба, поблагодарите релизера, оцените раздачу и оставьте свои комментарий, если Вы скачали Сколько у тебя? через торрент бесплатно! Внесите свою лепту в развитие PiratBit!
    Комментировать посты могут только пользователи прошедшие не сложную регистрацию
    Показать сообщения:    

    Сколько у тебя? через торрент
    Скачать бесплатно Сколько у тебя?
    Сколько у тебя? скачать торрент
    Сколько у тебя? смотреть онлайн
    Cкачать фильм Сколько у тебя? бесплатно
    Сколько у тебя? скачать торрент в хорошем качестве
    Сколько у тебя? смотреть онлайн бесплатно в хорошем качестве


    Вы не можете начинать темы
    Вы не можете отвечать на сообщения
    Вы не можете редактировать свои сообщения
    Вы не можете удалять свои сообщения
    Вы не можете голосовать в опросах
    Вы не можете прикреплять файлы к сообщениям
    Вы можете скачивать файлы