1 сезон

1 сезон

iTunes

1

КиноПоиск HD

Кинопоиск HD

iTunes

13

1 сезон

RePack

30

Ultimate

ВАЖНО

ИГРА 18+

pack

RePack

MK11
pack

Легкие деньги

RePack

jed

RePack

fifa19

RePack

RDR2

RePack

NEED FOR SPEED™ PAYBACK

4 сезон

9 сезон

Бесстыжие 9 сезон

Все сериалы

все сериалы на PB.wtf

RePack

FAR CRY 5
  
Magnet ссылка

ИнТуиЦия / SERENDIPITY (Питер Челсом /Peter Chelsom) [2001 г., Романтическая комедия, DVDRip] pb.wtf

ИнТуиЦия через торрент pb.wtf

Размер: 1.09 GB | Добавлен: 9 лет 5 мес. назад | Торрент скачан:389 раз
Скачать  

24-10-2011 08:21 ИнТуиЦия Скачать торрент  

ИнТуиЦия / SERENDIPITYГод выпуска: 2001
Страна: США
Жанр: Романтическая комедия
Продолжительность: 01:30:46
Перевод: Профессиональный (полное дублирование)

Режиссер: Питер Челсом /Peter Chelsom

В ролях: Лилли Лавин, Майкл Гуарино мл., Джон Кьюсак, Кейт Бекинсейл, Дэвид Спэрроу, Бриджет Монахан, Кейт Блюмберг

Описание: Во время предрождественской суматохи Джонатан Трейгер знакомится с Сарой Томас, когда они оба пытаются купить одну и ту же пару перчаток. Будучи двумя незнакомцами посреди толпы в Нью-Йорке, они проводят чудесный вечер вместе, наслаждаясь обществом друг друга, несмотря на то, что у каждого из них есть постоянный партнёр. Но, когда ночь подходит к своему неизбежному концу, перед ними стоит дилемма: продолжать ли их отношения или зарубить на корню. Когда Джонатан предлагает обменятся телефонами, Сара отказывается, предлагая всё оставить на попечение судьбы: «Если судьбе будет угодно - мы встретимся вновь».


Качество: DVDRip
Формат: AVI
Видео кодек: XviD
Аудио кодек: AC3
Видео: 704x384 (1.83:1), 23.976 fps, XviD ~1510 kbps avg, 0.23 bit/pixel
Аудио: 48 kHz, AC3 Dolby Digital, 2/0 (L,R) ch, ~192.00 kbps avg
E:\ЗАГРУЗКА\Intuiciya.2001_.avi
General
Complete name : E:\ЗАГРУЗКА\Intuiciya.2001_.avi
Format : AVI
Format/Info : Audio Video Interleave
File size : 1.09 GiB
Duration : 1h 30mn
Overall bit rate : 1 711 Kbps
Movie name : ИнТуиЦия /SERENDIPITY
Director : zim2001
Writing application : VirtualDubMod 1.5.10.2 (build 2540/release)
Copyright : torrents.ru
Video #0
ID : 0
Format : MPEG-4 Visual
Format profile : Advanced Simple@L5
Format settings, BVOP : Yes
Format settings, QPel : No
Format settings, GMC : No warppoints
Format settings, Matrix : Custom
Codec ID : XVID
Codec ID/Hint : XviD
Duration : 1h 30mn
Bit rate : 1 510 Kbps
Width : 704 pixels
Height : 384 pixels
Display aspect ratio : 16:9
Frame rate : 23.976 fps
Resolution : 8 bits
Colorimetry : 4:2:0
Scan type : Progressive
Bits/(Pixel*Frame) : 0.233
Stream size : 980 MiB (88%)
Writing library : XviD 1.2.1 (UTC 2008-12-04)
Audio #1
ID : 1
Format : AC-3
Format/Info : Audio Coding 3
Codec ID : 2000
Duration : 1h 30mn
Bit rate mode : Constant
Bit rate : 192 Kbps
Channel(s) : 2 channels
Channel positions : L R
Sampling rate : 48.0 KHz
Stream size : 125 MiB (11%)
Alignment : Split accross interleaves
Interleave, duration : 42 ms (1.00 video frame)
Interleave, preload duration : 500 ms
pb.wtf



Скачать ИнТуиЦия через торрент http://i29.fastpic.ru/big/2011/1024/ff/b55c75765adbe0b1e73a56bc0e3441ff.jpg Скачать фильм ИнТуиЦия через торрент бесплантно в хорошем качестве Описание: Во время предрождественской суматохи Джонатан Трейгер знакомится с Сарой Томас, когда они оба пытаются купить одну и ту же пару ... 10 10 6
Info! Золотая раздача, скачанное не засчитывается.
Торрент: Зарегистрирован [2011-10-24 08:21] · скачан: 389 раз
Статус: √ проверено
Размер: 1.09 GB
Как cкачать? Как скачать ИнТуиЦия через торрент | UTorrent

% Раздел Тема Автор DL S | L
Фильмы [HD 720p, 1080p] (Хороший звук DUB, MVO) [ 13.84 GB ] Интуиция / Serendipity [2001 BDRip 1080p by msltel] DUB 2 x MVO AVO msltel Скачать
1 | 0
Фильмы [HD 720p, 1080p] (Хороший звук DUB, MVO) [ 8.93 GB ] Интуиция / Serendipity [2001 BDRip 1080p от NNNB] DUB 2xMVO 2xAVO + Original + Sub _denis_100 Скачать
1 | 0
Фильмы [HD 720p, 1080p] (Хороший звук DUB, MVO) [ 4.7 GB ] Интуиция / Serendipity [2001 BDRip 720p by msltel] DUB 2 x MVO AVO msltel Скачать
1 | 0
Фильмы 2001-2005 [ 3.11 GB ] Интуиция / Serendipity [2001 BDRip AVC by msltel] DUB 2 x MVO AVO msltel Скачать
1 | 0
Фильмы [HD 720p, 1080p] (Хороший звук DUB, MVO) [ 10.23 GB ] Интуиция / Serendipity [2001 BDRip 1080p] US Shmel Скачать
1 | 0
Фильмы 2001-2005 [ 1.46 GB ] Интуиция / Serendipity [2001 романтическая HDTVRip] MoNaZ Скачать
1 | 0


Последний раз редактировалось: galaktika2009 (2011-10-27 09:37), всего редактировалось 2 раз(а)

28-11-2019 20:33  

Отключить всю рекламу на сайте


24-10-2011 12:25 ИнТуиЦия Скачать торрент  

galaktika2009
Так пойдет, молчаливый Вы мой пользователь.pb.wtf



27-01-2012 13:59 ИнТуиЦия Скачать торрент  

Очередная добрая сказка о любви и о верных друзьях))))
Фильм понравился, спасибо.pb.wtf



10-01-2013 18:18 ИнТуиЦия Скачать торрент  

galaktika2009 писал(а):

ИнТуиЦия / SERENDIPITY (Питер Челсом /Peter Chelsom) [2001 г., Романтическая комедия, DVDRip]

pb.wtf



    Дорогой пользователь! Огромная просьба, поблагодарите релизера, оцените раздачу и оставьте свои комментарий, если Вы скачали ИнТуиЦия через торрент бесплатно! Внесите свою лепту в развитие PiratBit!
    Комментировать посты могут только пользователи прошедшие не сложную регистрацию
    Показать сообщения:    

    ИнТуиЦия через торрент
    Скачать бесплатно ИнТуиЦия
    ИнТуиЦия скачать торрент
    ИнТуиЦия смотреть онлайн
    Cкачать фильм ИнТуиЦия бесплатно
    ИнТуиЦия скачать торрент в хорошем качестве
    ИнТуиЦия смотреть онлайн бесплатно в хорошем качестве


    Вы не можете начинать темы
    Вы не можете отвечать на сообщения
    Вы не можете редактировать свои сообщения
    Вы не можете удалять свои сообщения
    Вы не можете голосовать в опросах
    Вы не можете прикреплять файлы к сообщениям
    Вы можете скачивать файлы