новый адрес
Ссылка на приватное зеркало всего за 1$. Внимание количество ограничено!!!

iTunes

1+1

iTunes

мы

WEB-DL

1

iTunes

Чернобыль

iTunes

Ральф против интернета

Лицензия

ПШазам

Лицензия

Оно 2

Лицензия

30
pack

Вам бонус

ВАЖНО

!!Акция!!

Alien_RageХит недели

RePack

Resident Evil 21

ИГРА 18+

pack

RePack

jed

!!Акция!!

Alien_Rage

RePack

fifa19

RePack

Assassins Creed: Odyssey

RePack

NEED FOR SPEED™ PAYBACK

3 сезон

9 сезон

Бесстыжие 9 сезон

Все сериалы

все сериалы на PB.wtf

RePack

FAR CRY 5
Ребята, катастрофически не хватает 1900р. для оплаты серверов за Октябрь (всвязи с блокировками трафик упал в 3 раза), 1-2р., выручайте.
  

Ты встретишь таинственного незнакомца / You Will Meet a Tall Dark Stranger (Вуди Аллен / Woody Allen) [2010, мелодрама, комедия, DVD9] R5 pb.wtf

Ты встретишь таинственного незнакомца через торрент pb.wtf

Размер: 5.29 GB | Добавлен: 8 лет 1 мес. назад | Торрент скачан:48 раз
Скачать  

24-10-2011 19:40 Ты встретишь таинственного незнакомца Скачать торрент  


Ты встретишь таинственного незнакомца / You Will Meet a Tall Dark Stranger
Страна: США, Испания
Студия: Antena 3 Films, Antena 3 Televisión, Dippermouth, Gravier Productions, Mediapro, Versátil Cinema
Жанр: мелодрама, комедия
Год выпуска: 2010
Мировая премьера: 15 мая 2010
Российская премьера: 17 февраля 2011, «Централ Партнершип»
Дата выхода DVD: 27 октября 2011, «Новый Диск»
Продолжительность: 01:34:07
Перевод: Профессиональный (дублированный) [Лицензия]
Cубтитры: нет
Режиссер: Вуди Аллен / Woody Allen
В ролях: Наоми Уоттс, Джош Бролин, Антонио Бандерас, Энтони Хопкинс, Джемма Джонс, Полин Коллинз, Руперт Фрейзер, Келли Харрисон, Фрида Пинто, Элеанор Гекс
Описание: Сюжет закручивается вокруг различных членов семьи, их запутанных отношений и их попыток разрешить свои проблемы.

Релиз группы:
Бонусы: Анонсы
Качество: DVD9 R5
Формат: DVD-Video
Видео кодек: MPEG2
Аудио кодек: AC3
Видео: PAL 16:9 (720x576(0.626)) MPEG Video, 25,000 кадр/сек, 6493 Кбит/сек
Аудио: Russian (Dolby AC3, 6 ch) 448 Кбит/сек, 48,0 КГц



Title:
Size: 5.29 Gb ( 5 542 626 KBytes ) - DVD-9
Enabled regions: 1, 2, 3, 4, 5, 6, 7, 8

VTS_01 :
Play Length: 00:00:15
Video: PAL 4:3 (720x576) VBR
Audio:
Not specified (Dolby AC3, 2 ch)

VTS_02 :
Play Length: 00:00:08
Video: PAL 16:9 (720x576) VBR, Auto Pan&Scan
Audio:
Not specified (Dolby AC3, 2 ch)

VTS_03 :
Play Length: 00:00:18
Video: PAL 16:9 (720x576) VBR, Auto Pan&Scan
Audio:
Not specified (Dolby AC3, 2 ch)
Not specified (Dolby AC3, 2 ch)

VTS_04 :
Play Length: 01:34:07
Video: PAL 16:9 (720x576) VBR, Auto Pan&Scan
Audio:
Russian (Dolby AC3, 6 ch)

VTS_05 :
Play Length: 00:01:34
Video: PAL 16:9 (720x576) VBR, Auto Pan&Scan
Audio:
Not specified (Dolby AC3, 2 ch)

VTS_06 :
Play Length: 00:01:19
Video: PAL 16:9 (720x576) VBR, Auto Pan&Scan
Audio:
Not specified (Dolby AC3, 2 ch)

VTS_07 :
Play Length: 00:02:19
Video: PAL 16:9 (720x576) VBR, Auto Pan&Scan
Audio:
Not specified (Dolby AC3, 2 ch)

VTS_08 :
Play Length: 00:02:00
Video: PAL 16:9 (720x576) VBR, Auto Pan&Scan
Audio:
Not specified (Dolby AC3, 2 ch)

VTS_09 :
Play Length: 00:01:18
Video: PAL 16:9 (720x576) VBR, Auto Pan&Scan
Audio:
Not specified (Dolby AC3, 2 ch)

VTS_10 :
Play Length: 00:01:57
Video: PAL 16:9 (720x576) VBR, Auto Pan&Scan
Audio:
Not specified (Dolby AC3, 2 ch)
Subtitles:
Russian

VTS_11 :
Play Length: 00:02:02
Video: PAL 16:9 (720x576) VBR, Auto Pan&Scan
Audio:
Not specified (Dolby AC3, 2 ch)

VTS_12 :
Play Length: 00:01:52
Video: PAL 16:9 (720x576) VBR, Auto Pan&Scan
Audio:
Not specified (Dolby AC3, 2 ch)

VTS_13 :
Play Length: 00:02:00
Video: PAL 16:9 (720x576) VBR, Auto Pan&Scan
Audio:
Not specified (Dolby AC3, 2 ch)

Menu Video:
PAL 16:9 (720x576) VBR
Auto Letterboxed
Menu English Language Unit :
Root Menu
Chapter (PTT) Menu
Общее
Полное имя : G:\Новинки 2011\Ty.vstretish.tainstvennogo.neznakomca.2010.DVD9\VIDEO_TS\VTS_04_1.VOB
Формат : MPEG-PS
Размер файла : 1024 Мбайт
Продолжительность : 20 м.
Общий поток : 7082 Кбит/сек

Видео
Идентификатор : 224 (0xE0)
Формат : MPEG Video
Версия формата : Version 2
Профиль формата : Main@Main
Параметр BVOP формата : Да
Параметр матрицы формата : По умолчанию
Параметр GOP формата : M=3, N=12
Продолжительность : 20 м.
Вид битрейта : Переменный
Битрейт : 6493 Кбит/сек
Максимальный битрейт : 7500 Кбит/сек
Ширина : 720 пикселей
Высота : 576 пикселей
Соотношение сторон : 16:9
Частота кадров : 25,000 кадров/сек
Стандарт вещания : PAL
Цветовое пространство : YUV
Субдискретизация насыщенности : 4:2:0
Битовая глубина : 8 бит
Тип развёртки : Прогрессивная
Метод сжатия : С потерями
Бит/(Пиксели*Кадры) : 0.626
Размер потока : 939 Мбайт (92%)

Аудио
Идентификатор : 189 (0xBD)-128 (0x80)
Формат : AC-3
Формат/Информация : Audio Coding 3
Расширение режима : CM (complete main)
Режим смешивания : DVD-Video
Продолжительность : 20 м.
Вид битрейта : Постоянный
Битрейт : 448 Кбит/сек
Каналы : 6 каналов
Расположение каналов : Front: L C R, Side: L R, LFE
Частота : 48,0 КГц
Битовая глубина : 16 бит
Метод сжатия : С потерями
Размер потока : 64,8 Мбайт (6%)










pb.wtf



Скачать Ты встретишь таинственного незнакомца через торрент http://i4.imageban.ru/out/2011/10/24/b41db5d710059f04b3f400c72782e4df.jpg Скачать фильм Ты встретишь таинственного незнакомца через торрент бесплантно в хорошем качестве Описание: Сюжет закручивается вокруг различных членов семьи, их запутанных отношений и их попыток разрешить свои проблемы. Релиз ... 4 10 1
Info! Золотая раздача, скачанное не засчитывается.
Торрент: Зарегистрирован [2011-10-24 19:40] · скачан: 48 раз
Статус: √ проверено
Размер: 5.29 GB
Как cкачать? Как скачать Ты встретишь таинственного незнакомца через торрент | qTorrent



Последний раз редактировалось: voovaz (2011-10-25 13:28), всего редактировалось 2 раз(а)

28-11-2019 20:33  

Отключить всю рекламу на сайте

24-10-2011 19:56 Ты встретишь таинственного незнакомца Скачать торрент  

Resident1948 писал(а):

Автор поправьте в шапке год 2010

Поправил,спасибо! :ad:pb.wtf



    Дорогой пользователь! Огромная просьба, поблагодарите релизера, оцените раздачу и оставьте свои комментарий, если Вы скачали Ты встретишь таинственного незнакомца через торрент бесплатно! Внесите свою лепту в развитие PiratBit!
    Комментировать посты могут только пользователи прошедшие не сложную регистрацию
    Показать сообщения:    

    Ты встретишь таинственного незнакомца через торрент
    Скачать бесплатно Ты встретишь таинственного незнакомца
    Ты встретишь таинственного незнакомца скачать торрент
    Ты встретишь таинственного незнакомца смотреть онлайн
    Cкачать фильм Ты встретишь таинственного незнакомца бесплатно
    Ты встретишь таинственного незнакомца скачать торрент в хорошем качестве
    Ты встретишь таинственного незнакомца смотреть онлайн бесплатно в хорошем качестве


    Вы не можете начинать темы
    Вы не можете отвечать на сообщения
    Вы не можете редактировать свои сообщения
    Вы не можете удалять свои сообщения
    Вы не можете голосовать в опросах
    Вы не можете прикреплять файлы к сообщениям
    Вы можете скачивать файлы