Ссылка на приватное зеркало нашего сайта всего за 1$. Внимание количество ограничено!!!

2 сезон

iTunes

1 сезон

1

2 сезон

2 сезон

iTunes

1 сезон

RePack

30

Ultimate

ВАЖНО

ИГРА 18+

pack

RePack

MK11
pack

Забери бонус

RePack

jed

!!Акция!!

Alien_Rage

RePack

fifa19

RePack

Assassins Creed: Odyssey

RePack

NEED FOR SPEED™ PAYBACK

4 сезон

9 сезон

Бесстыжие 9 сезон

Все сериалы

все сериалы на PB.wtf

RePack

FAR CRY 5
  

Fallout: Ядерный перекур / "Fallout: Nuka Break" the series / Сезон: 1 / Серии: 2 из N (Vincent Talenti) [2011 г., фантастика, SATRip] pb.wtf

Fallout: Ядерный перекур через торрент pb.wtf

Размер: 343 MB | Добавлен: 9 лет 1 мес. назад | Торрент скачан:260 раз
Скачать  

24-10-2011 19:46 Fallout: Ядерный перекур Скачать торрент  

Fallout: Ядерный перекур / "Fallout: Nuka Break" the series / Сезон: 1 / Серии: 2 из N

Год выпуска: 2011
Страна: сша
Жанр: фантастика
Продолжительность: ~00:10:00
Перевод: Любительский (двухголосый)

Режиссер: Vincent Talenti

В ролях: Zack Finfrock, Aaron Giles, Tybee Diskin.

Описание: Лучший сериал, созданный на основе вселенной Fallout! После успеха оригинального Fallout: Nuka Break, было собрано 26.000$ и началось производства данного маленького шедевра. Переведено и озвучено силами команды NeonGame.ru

Доп. информация: Раздача будет пополняться по мере перевода и выхода серий.

Качество: SATRip
Формат: MP4
Видео кодек: H.264
Аудио кодек: MP3
Видео: AVC, 1920x1080 пикселей (16:9), 23,976 кадра/сек, 2391 Кбит/сек, 0.048 bit/pixel
Аудио: MP3 , 44,1 КГц, 2 канала, 128 Кбит/сек
pb.wtf



Скачать Fallout: Ядерный перекур через торрент http://i29.fastpic.ru/big/2011/1024/0b/b74cbd1b6e36f51d2ec83a11249f940b.png Скачать фильм Fallout: Ядерный перекур через торрент бесплантно в хорошем качестве Описание: Лучший сериал, созданный на основе вселенной Fallout! После успеха оригинального Fallout: Nuka Break, было собрано 2000$ и ... 4.4 10 19
Info! Золотая раздача, скачанное не засчитывается.
Торрент: Зарегистрирован [2011-10-24 19:46] · скачан: 260 раз
Статус: √ проверено
Размер: 343 MB
Как cкачать? Как скачать Fallout: Ядерный перекур через торрент | qTorrent

28-11-2019 20:33  

Отключить всю рекламу на сайте

24-10-2011 19:50 Fallout: Ядерный перекур Скачать торрент  

не слышал любопытноpb.wtf



24-10-2011 20:58 Fallout: Ядерный перекур Скачать торрент  

Finansyst
Выложи информацию МедиаИнфоpb.wtf



24-10-2011 21:46 Fallout: Ядерный перекур Скачать торрент  

Так, как держит автомат молокосос на втором скрине - гарантированы переломы запястий и вероятно правого плеча. И руки у него, пардон, как у ... сами знаете кого... немужицкие ))))pb.wtf



24-10-2011 22:46 Fallout: Ядерный перекур Скачать торрент  

просмотр скринов отбил охоту качать этот "шедевр"pb.wtf



25-10-2011 03:49 Fallout: Ядерный перекур Скачать торрент  

-=Cherry=- писал(а):

Finansyst
Выложи информацию МедиаИнфо

General
Complete name : E:\пиратбит\Fallout-Nuka Break.Season 1(1080p) PiratBit.ru\Fallout-Nuka Break.S01E02.mp4
Format : MPEG-4
Format profile : Base Media / Version 2
Codec ID : mp42
File size : 173 MiB
Duration : 7mn 45s
Overall bit rate : 3 119 Kbps
Encoded date : UTC 2011-10-22 16:09:58
Tagged date : UTC 2011-10-22 16:09:58
gsst : 0
gstd : 465005
gssd : B4A7DDA65MH1319390858544206
gshh : v5.cache4.c.youtube.com

Video
ID : 1
Format : AVC
Format/Info : Advanced Video Codec
Format profile : High@L4.0
Format settings, CABAC : Yes
Format settings, ReFrames : 1 frame
Format settings, GOP : M=1, N=48
Codec ID : avc1
Codec ID/Info : Advanced Video Coding
Duration : 7mn 45s
Bit rate : 2 962 Kbps
Maximum bit rate : 8 882 Kbps
Width : 1 920 pixels
Height : 1 080 pixels
Display aspect ratio : 16:9
Frame rate mode : Variable
Frame rate : 23.976 fps
Minimum frame rate : 23.810 fps
Maximum frame rate : 24.390 fps
Color space : YUV
Chroma subsampling : 4:2:0
Bit depth : 8 bits
Scan type : Progressive
Bits/(Pixel*Frame) : 0.060
Stream size : 164 MiB (95%)
Tagged date : UTC 2011-10-22 16:10:02

Audio
ID : 2
Format : AAC
Format/Info : Advanced Audio Codec
Format profile : LC
Codec ID : 40
Duration : 7mn 44s
Bit rate mode : Variable
Bit rate : 151 Kbps
Maximum bit rate : 202 Kbps
Channel(s) : 2 channels
Channel positions : Front: L R
Sampling rate : 44.1 KHz
Compression mode : Lossy
Stream size : 8.38 MiB (5%)
Title : IsoMedia File Produced by Google, 5-11-2011
Encoded date : UTC 2011-10-22 16:10:00
Tagged date : UTC 2011-10-22 16:10:02
pb.wtf



31-12-2011 11:18 Fallout: Ядерный перекур Скачать торрент  

Ха помню,прикольная запись....Там еще вроде парень в костюме убежища 13....И его накаловают вечно с Ядер колой:)))pb.wtf



25-04-2012 14:27 Fallout: Ядерный перекур Скачать торрент  

хахах прикольна. спасибо за раздачу.pb.wtf



30-12-2012 11:54 Fallout: Ядерный перекур Скачать торрент  

качну отдавая дань РПГ шедевру )))pb.wtf



    Дорогой пользователь! Огромная просьба, поблагодарите релизера, оцените раздачу и оставьте свои комментарий, если Вы скачали Fallout: Ядерный перекур через торрент бесплатно! Внесите свою лепту в развитие PiratBit!
    Комментировать посты могут только пользователи прошедшие не сложную регистрацию
    Показать сообщения:    

    Fallout: Ядерный перекур через торрент
    Скачать бесплатно Fallout: Ядерный перекур
    Fallout: Ядерный перекур скачать торрент
    Fallout: Ядерный перекур смотреть онлайн
    Cкачать фильм Fallout: Ядерный перекур бесплатно
    Fallout: Ядерный перекур скачать торрент в хорошем качестве
    Fallout: Ядерный перекур смотреть онлайн бесплатно в хорошем качестве


    Вы не можете начинать темы
    Вы не можете отвечать на сообщения
    Вы не можете редактировать свои сообщения
    Вы не можете удалять свои сообщения
    Вы не можете голосовать в опросах
    Вы не можете прикреплять файлы к сообщениям
    Вы можете скачивать файлы