Ссылка на приватное зеркало нашего сайта всего за 1$. Внимание количество ограничено!!!

2 сезон

iTunes

1 сезон

1

2 сезон

2 сезон

iTunes

1 сезон

RePack

30

Ultimate

ВАЖНО

ИГРА 18+

pack

RePack

MK11
pack

Забери бонус

RePack

jed

!!Акция!!

Alien_Rage

RePack

fifa19

RePack

Assassins Creed: Odyssey

RePack

NEED FOR SPEED™ PAYBACK

4 сезон

9 сезон

Бесстыжие 9 сезон

Все сериалы

все сериалы на PB.wtf

RePack

FAR CRY 5
  

Декстер / Dexter / Сезон: 6 / Серии: 1-3 (12) (Кит Гордон, Стив Шилл, Джон Дал, Эрнест Р. Дикерсон и др.) [2011, триллер, драма, криминал, детектив, HDTV 720p] (NovaFilm) pb.wtf

Декстер через торрент pb.wtf

Размер: 6.56 GB | Добавлен: 8 лет 10 мес. назад | Торрент скачан:0 раз
Скачать  

28-10-2011 13:07 Декстер Скачать торрент  

[font="Georgia"]Декстер / Dexter
Год выпуска:2011
Страна: США
Жанр: триллер, драма, криминал, детектив
Продолжительность:~ 00:54:00
Перевод: Профессиональный (многоголосный закадровый) - NovaFilm

Режиссер: Маркос Сига, Тим Хантер, Кит Гордон

IMDB: 9.20 (49 824)
Кинопоиск: 8.692 (17 908)
В ролях: Майкл С. Холл (Dexter Morgan), Дженнифер Карпентер (Debra Morgan), Лорен Велес (Lt. Maria Laguerta), Дэвид Зайас (Angel Batista), К.С. Ли (Vince Masuka), Джеймс Римар (Harry Morgan), Кристина Робинсон (Astor Bennett), Престон Бэйли (Cody Bennett), Десмонд Харрингтон (Joey Quinn) и др.




[font="Georgia"]Описание: Продолжение истории самого главного убийцы Америки Декстера Моргана. Он все так же умен, расчетлив и хладнокровен. Он по-прежнему придерживается своего кодекса о том, что не должны пострадать невинные люди. Однако, потенциальные жертвы Декстера также становятся все опаснее и изворотливее.

Качество: HDTV 720p
Формат: MKV
Видео кодек: H.264
Аудио кодек: AC3
Видео: 1280×720 (1.78:1), 23.976 fps, 4995 kbps avg, 0,22 bit/pixel
Аудио#1: Русский,48 kHz, Dolby Digital 5.1 @ 384 kbps /NovaFilm/
Аудио#2: Английский, 48 kHz, Dolby Digital 5.1 @ 384 kbps /Original/
Релиз от:

[font="Georgia"]Озвучка: pozakazu-тв
Перевод: hatifnatten

[font="Georgia"]
Внимание! В сериале присутствует ненормативная лексика!
1. Those Kinds of Things / Прописные Истины
2. Once Upon a Time... / Жили-были...
E:\ЗАГРУЗКА\Декстер NovaFiLM.TV (Cезон 6) 720\dexter.s06e02.hdtv.720p.ac3.rus.eng.novafilm.tv.mkv
General
Complete name : E:\ЗАГРУЗКА\Декстер NovaFiLM.TV (Cезон 6) 720\dexter.s06e02.hdtv.720p.ac3.rus.eng.novafilm.tv.mkv
Format : Matroska
File size : 2.19 GiB
Duration : 53mn 13s
Overall bit rate : 5 880 Kbps
Encoded date : UTC 2011-10-20 11:44:16
Writing application : mkvmerge v5.0.1 ('Es ist Sommer') built on Oct 9 2011 11:55:43
Writing library : libebml v1.2.2 + libmatroska v1.3.0
Video #1
ID : 1
Format : AVC
Format/Info : Advanced Video Codec
Format profile : High@L4.1
Format settings, CABAC : Yes
Format settings, ReFrames : 6 frames
Muxing mode : Container profile=Unknown@4.1
Codec ID : V_MPEG4/ISO/AVC
Duration : 53mn 10s
Bit rate : 4 995 Kbps
Nominal bit rate : 5 111 Kbps
Width : 1 280 pixels
Height : 720 pixels
Display aspect ratio : 16:9
Frame rate : 23.976 fps
Resolution : 8 bits
Colorimetry : 4:2:0
Scan type : Progressive
Bits/(Pixel*Frame) : 0.226
Stream size : 1.86 GiB (85%)
Title : Dexter - Season 6, Episode 2: Once Upon a Time... ("Жили-были...")
Writing library : x264 core 116 r2074 2641b9e
Encoding settings : cabac=1 / ref=6 / deblock=1:-3:-3 / analyse=0x3:0x133 / me=umh / subme=6 / psy=1 / psy_rd=1.00:0.00 / mixed_ref=1 / me_range=24 / chroma_me=1 / trellis=2 / 8x8dct=1 / cqm=0 / deadzone=21,11 / fast_pskip=1 / chroma_qp_offset=-4 / threads=3 / sliced_threads=0 / nr=0 / decimate=1 / interlaced=0 / bluray_compat=0 / constrained_intra=0 / bframes=3 / b_pyramid=0 / b_adapt=2 / b_bias=0 / direct=3 / weightb=1 / open_gop=0 / weightp=2 / keyint=250 / keyint_min=23 / scenecut=40 / intra_refresh=0 / rc_lookahead=40 / rc=2pass / mbtree=1 / bitrate=5111 / ratetol=1.0 / qcomp=0.60 / qpmin=10 / qpmax=51 / qpstep=4 / cplxblur=20.0 / qblur=0.5 / ip_ratio=1.40 / aq=1:1.00
Audio #2
ID : 2
Format : AC-3
Format/Info : Audio Coding 3
Codec ID : A_AC3
Duration : 53mn 13s
Bit rate mode : Constant
Bit rate : 384 Kbps
Channel(s) : 6 channels
Channel positions : Front: L C R, Surround: L R, LFE
Sampling rate : 48.0 KHz
Stream size : 146 MiB (7%)
Title : Dolby Digital 5.1 @ 384 kbps
Language : Russian
Audio #3
ID : 3
Format : AC-3
Format/Info : Audio Coding 3
Codec ID : A_AC3
Duration : 53mn 13s
Bit rate mode : Constant
Bit rate : 384 Kbps
Channel(s) : 6 channels
Channel positions : Front: L C R, Surround: L R, LFE
Sampling rate : 48.0 KHz
Stream size : 146 MiB (7%)
Title : Dolby Digital 5.1 @ 384 kbps
при каждом добавлении создётся новый торрент. Чтобы начать докачку новой серии, пользователям необходимо сделать следующее:

(1) остановить скачивание,
(2) удалить старый торрент у себя из клиента (старые серии удалять не надо),
(3) скачать новый торрент и запустить его у себя в клиенте вместо старого, при этом указать клиенту путь в старую папку куда и должно происходить скачивание новых серий.

Ваш клиент при этом должен произвести хеширование (проверку) старой папки (если не производит сам - помогите ему сделать это), и будет докачивать только те серии которых у вас ещё нет. Старые серии при этом не удаляются, а продолжают раздаваться!

Eсли вы уже удалили старые серии, то предотвратить повторную закачку старых серий можно, отжав галочку в соответсвующих местах при запуске нового торрента. По возможности, желательно не удалять старые серии как можно дольше чтобы релизёр не столько продолжал раздавать старые серии, а смог сконцентрироваться на новых.
Добавлена 3 серия. Перезагрузите торрент.pb.wtf



Скачать Декстер через торрент http://i32.fastpic.ru/big/2011/1028/0f/914b249c7ad823ddf5d28da1978b5b0f.jpg Скачать фильм Декстер через торрент бесплантно в хорошем качестве Описание: Продолжение истории самого главного убийцы Америки Декстера Моргана. Он все так же умен, расчетлив и хладнокровен. Он по-прежнему ... 3 10 1
Info! Золотая раздача, скачанное не засчитывается.
Торрент: Зарегистрирован [2012-01-20 12:11] · скачан: 0 раз
Статус: √ проверено
Размер: 6.56 GB
Как cкачать? Как скачать Декстер через торрент | qTorrent

% Раздел Тема Автор DL S | L
Зарубежные сериалы [ 1.99 GB ] Декстер / Dexter / Сезон: 6 / Серии: 1-3 [2011 HDTVRip] lyokaa Скачать
1 | 0


Последний раз редактировалось: lyokaa (2012-01-20 12:11), всего редактировалось 2 раз(а)

28-11-2019 20:33  

Отключить всю рекламу на сайте

28-10-2011 15:25 Декстер Скачать торрент  

сам смотрю но в другом переводе. без матов. так уже 4 серии естьpb.wtf



08-11-2011 06:39 Декстер Скачать торрент  

От новы перевод куда лучше. Так что стоит и подождать.pb.wtf



16-11-2011 18:09 Декстер Скачать торрент  

Когда будут еще серии?pb.wtf



20-01-2012 12:12 Декстер Скачать торрент  

Добавлена 3 серия. Перезагрузите торрент.pb.wtf



    Дорогой пользователь! Огромная просьба, поблагодарите релизера, оцените раздачу и оставьте свои комментарий, если Вы скачали Декстер через торрент бесплатно! Внесите свою лепту в развитие PiratBit!
    Комментировать посты могут только пользователи прошедшие не сложную регистрацию
    Показать сообщения:    

    Декстер через торрент
    Скачать бесплатно Декстер
    Декстер скачать торрент
    Декстер смотреть онлайн
    Cкачать фильм Декстер бесплатно
    Декстер скачать торрент в хорошем качестве
    Декстер смотреть онлайн бесплатно в хорошем качестве


    Вы не можете начинать темы
    Вы не можете отвечать на сообщения
    Вы не можете редактировать свои сообщения
    Вы не можете удалять свои сообщения
    Вы не можете голосовать в опросах
    Вы не можете прикреплять файлы к сообщениям
    Вы можете скачивать файлы