Ссылка на приватное зеркало нашего сайта всего за 1$. Внимание количество ограничено!!!

2 сезон

iTunes

1 сезон

1

2 сезон

2 сезон

iTunes

1 сезон

RePack

30

Ultimate

ВАЖНО

ИГРА 18+

pack

RePack

MK11
pack

Забери бонус

RePack

jed

!!Акция!!

Alien_Rage

RePack

fifa19

RePack

Assassins Creed: Odyssey

RePack

NEED FOR SPEED™ PAYBACK

4 сезон

9 сезон

Бесстыжие 9 сезон

Все сериалы

все сериалы на PB.wtf

RePack

FAR CRY 5
  

Тупик / Dead set (Yann Demange / Ян Деманж) (Сезон: 1. Серии: 1-5) [2008 г., постапокалиптика, Ужасы, зомби, драма, DVDRip] pb.wtf

Тупик через торрент pb.wtf

Размер: 1.37 GB | Добавлен: 9 лет назад | Торрент скачан:201 раз
Скачать  

30-10-2011 17:04 Тупик Скачать торрент  

Тупик / Dead set

Год выпуска: 2008
Страна: сша, великобритания.
Жанр: постапокалиптика, Ужасы, зомби, драма
Продолжительность: 02:16:50
Перевод: Любительский (одноголосый, ненормативная лексика)

Режиссер: Yann Demange / Ян Деманж
Продюссер: Чарли Брукер, Энджи Дэниелл
Сценарий: Чарли Брукер

Премьера в мире: 27 октября 2008

В ролях: Элиес Гейбл, Шелли Кон, Кетлин Макдермонт, Адам Дикон, Бэс Кордингли, Джейми Уинстон, Энди Ньюман, Риз Ахмед, Лиз Мэй Брайс, Уорен Браун, Чиззи Экудоли, Рэй Четек и другие.

Описание: Уже два месяца участники телешоу "Старший брат" провели в изоляции. Они уже готовы растерзать друг друга, но судьба уготовила им другую участь. Теперь они единственные, кто остался в живых, и вынуждены противостоять нападению бешеных зомби.

Доп. информация:


ПРЕДУПРЕЖДЕНИЕ: Сериал изобилует сценами насилия и ненормативной лексикой.


видео идет сплошным потоком, как в полнометражке. Нет разделений на серии.

Качество: DVDRip
Формат: AVI
Видео кодек: DivX
Аудио кодек: MP3
Видео: 704x384 (1.83:1), 25 fps, DivX Codec 5.x or 6.x ~1291 kbps avg, 0.19 bit/pixel
Аудио: 48 kHz, MPEG Layer 3, 2 ch, ~128.00 kbps avg
General
Complete name : E:\пиратбит\tupik_2008_dvdrip_piratBITru.avi
Format : AVI
Format/Info : Audio Video Interleave
File size : 1.37 GiB
Duration : 2h 16mn
Overall bit rate : 1 429 Kbps
Writing application : VirtualDubModRus 1.5.10.2 (build 2542/release)
Writing library : VirtualDubMod build 2542/release

Video
ID : 0
Format : MPEG-4 Visual
Format settings, BVOP : 1
Format settings, QPel : No
Format settings, GMC : No warppoints
Format settings, Matrix : Default (H.263)
Muxing mode : Packed bitstream
Codec ID : DX50
Codec ID/Hint : DivX 5
Duration : 2h 16mn
Bit rate : 1 291 Kbps
Width : 704 pixels
Height : 384 pixels
Display aspect ratio : 16:9
Frame rate : 25.000 fps
Color space : YUV
Chroma subsampling : 4:2:0
Bit depth : 8 bits
Scan type : Progressive
Compression mode : Lossy
Bits/(Pixel*Frame) : 0.191
Stream size : 1.23 GiB (90%)
Writing library : DivX 6.8.5 (UTC 2009-08-20)

Audio
ID : 1
Format : MPEG Audio
Format version : Version 1
Format profile : Layer 3
Mode : Joint stereo
Mode extension : MS Stereo
Codec ID : 55
Codec ID/Hint : MP3
Duration : 2h 16mn
Bit rate mode : Constant
Bit rate : 128 Kbps
Channel(s) : 2 channels
Sampling rate : 48.0 KHz
Compression mode : Lossy
Stream size : 125 MiB (9%)
Alignment : Split accross interleaves
Interleave, duration : 40 ms (1.00 video frame)
Interleave, preload duration : 500 ms
Writing library : LAME3.98.2

или
pb.wtf



Скачать Тупик через торрент http://i28.fastpic.ru/big/2011/1030/1f/3fefe314587fcc44bd728320a2bf8d1f.jpg Скачать фильм Тупик через торрент бесплантно в хорошем качестве Описание: Уже два месяца участники телешоу "Старший брат" провели в изоляции. Они уже готовы растерзать друг друга, но судьба уготовила им ... 10 10 2
Info! Золотая раздача, скачанное не засчитывается.
Торрент: Зарегистрирован [2011-10-30 17:04] · скачан: 201 раз
Статус: √ проверено
Размер: 1.37 GB
Как cкачать? Как скачать Тупик через торрент | qTorrent

% Раздел Тема Автор DL S | L
Зарубежные сериалы [ 1.13 GB ] Тупик / Dead Set [2008 зомби DVDRip] -=Cherry=- Скачать
1 | 0
Зарубежные сериалы [ 7.13 GB ] Тупик / Dead Set [2008 BDRip VO] VintMosina Скачать
1 | 0


Последний раз редактировалось: Finansyst (2011-10-30 20:55), всего редактировалось 2 раз(а)

28-11-2019 20:33  

Отключить всю рекламу на сайте

30-10-2011 17:33 Тупик Скачать торрент  

Атличный сериал!!!pb.wtf



30-10-2011 18:03 Тупик Скачать торрент  

Finansyst
Читаем и исправляем http://pb.wtf/viewtopic.php?t=60084pb.wtf



30-10-2011 19:28 Тупик Скачать торрент  

что именно надо исправить ????pb.wtf



08-11-2011 17:52 Тупик Скачать торрент  

переустановка 7ки на 8ку ОС
ухожу с раздачиpb.wtf



17-03-2013 17:49 Тупик Скачать торрент  

Finansyst
Дай пожалуйста скачать "Тупик"! Заранее спасибо!pb.wtf



02-03-2015 19:11 Тупик Скачать торрент  

Finansyst, Прошу раздачу !pb.wtf



    Дорогой пользователь! Огромная просьба, поблагодарите релизера, оцените раздачу и оставьте свои комментарий, если Вы скачали Тупик через торрент бесплатно! Внесите свою лепту в развитие PiratBit!
    Комментировать посты могут только пользователи прошедшие не сложную регистрацию
    Показать сообщения:    

    Тупик через торрент
    Скачать бесплатно Тупик
    Тупик скачать торрент
    Тупик смотреть онлайн
    Cкачать фильм Тупик бесплатно
    Тупик скачать торрент в хорошем качестве
    Тупик смотреть онлайн бесплатно в хорошем качестве


    Вы не можете начинать темы
    Вы не можете отвечать на сообщения
    Вы не можете редактировать свои сообщения
    Вы не можете удалять свои сообщения
    Вы не можете голосовать в опросах
    Вы не можете прикреплять файлы к сообщениям
    Вы можете скачивать файлы