Ссылка на приватное зеркало нашего сайта всего за 1$. Внимание количество ограничено!!!

2 сезон

iTunes

1 сезон

1

iTunes

iTunes

iTunes

1 сезон

RePack

30

ИГРА 18+

pack

ВАЖНО

!!Акция!!

Alien_RageХит недели

RePack

MK11
pack

Забери бонус

RePack

jed

!!Акция!!

Alien_Rage

RePack

fifa19

RePack

Assassins Creed: Odyssey

RePack

NEED FOR SPEED™ PAYBACK

4 сезон

9 сезон

Бесстыжие 9 сезон

Все сериалы

все сериалы на PB.wtf

RePack

FAR CRY 5
  

Сияющая киска / Vajazzled (Miles Long, 3rd Degree) [2010 г., Gonzo, Oral, Anal, Beautiful Breast, Beautiful Pussy, WEB-DL, 1080p] pb.wtf

Сияющая киска через торрент pb.wtf

Размер: 11.61 GB | Добавлен: 8 лет 11 мес. назад | Торрент скачан:156 раз
Скачать  

01-11-2011 14:39 Сияющая киска Скачать торрент  

Vajazzled / Сияющая киска

Год производства: 2010 г.
Страна: США
Жанр: Gonzo, Oral, Anal, Beautiful Breast, Beautiful Pussy
Продолжительность: 02:31:28 + 00:28:18
Язык: Английский
Режиссер: Miles Long
Студия: 3rd Degree
В ролях:
Amy Brooke, Asa Akira, Charley Chase, David Perry, Erik Everhard, John Strong, Juelz Ventura, Kagney Linn Karter, Mark Wood, Mr. Pete, Ron Jeremy

Описание:
Prepare to be dazzled, these chicks are vajazzled! These sluts have the skin-bling to fire up your ding-a-ling! Sparkling pussies and glimmering cunts, they’ve got the jewels to make your tool drool. Drive inside those decorated dick holes! Find the exotic treasure in her pink palace! Unload in luxury!
Доп. информация: http://www.adultdvdempire.com/backcover/1537550/vaj...porn-videos.html


Общее
Полное имя : D:\torrent\Vajazzled-[1080p]\Vajazzled-bonus.mp4
Формат : MPEG-4
Профиль формата : Base Media
Идентификатор кодека : isom
Размер файла : 1,89 Гбайт
Продолжительность : 28 м.
Режим общего битрейта : Переменный
Общий поток : 9538 Кбит/сек
Программа кодирования : Lavf52.16.0
Примечание : FlixEngineLinux_8.0.14.0 (www.on2.com)
Видео
Идентификатор : 1
Формат : AVC
Формат/Информация : Advanced Video Codec
Профиль формата : Baseline@L4.0
Параметр CABAC формата : Нет
Параметр ReFrames формата : 1 кадр
Параметр GOP формата : M=1, N=20
Идентификатор кодека : avc1
Идентификатор кодека/Информация : Advanced Video Coding
Продолжительность : 28 м.
Битрейт : 9404 Кбит/сек
Ширина : 1920 пикселей
Высота : 1080 пикселей
Соотношение сторон : 16:9
Цветовое пространство : YUV
Субдискретизация насыщенности : 4:2:0
Битовая глубина : 8 бит
Тип развёртки : Прогрессивная
Размер потока : 1,86 Гбайт (99%)
Аудио
Идентификатор : 2
Формат : AAC
Формат/Информация : Advanced Audio Codec
Профиль формата : LC
Идентификатор кодека : 40
Продолжительность : 28 м.
Вид битрейта : Переменный
Битрейт : 128 Кбит/сек
Каналы : 2 канала
Расположение каналов : Front: L R
Частота : 48,0 КГц
Метод сжатия : С потерями
Размер потока : 25,9 Мбайт (1%)
Общее
Полное имя : D:\torrent\Vajazzled-[1080p]\Vajazzled-scene 1.mp4
Формат : MPEG-4
Профиль формата : Base Media
Идентификатор кодека : isom
Размер файла : 2,14 Гбайт
Продолжительность : 32 м.
Режим общего битрейта : Переменный
Общий поток : 9297 Кбит/сек
Программа кодирования : Lavf52.16.0
Примечание : FlixEngineLinux_8.0.14.0 (www.on2.com)
Видео
Идентификатор : 1
Формат : AVC
Формат/Информация : Advanced Video Codec
Профиль формата : Baseline@L4.0
Параметр CABAC формата : Нет
Параметр ReFrames формата : 1 кадр
Параметр GOP формата : M=1, N=20
Идентификатор кодека : avc1
Идентификатор кодека/Информация : Advanced Video Coding
Продолжительность : 32 м.
Битрейт : 9163 Кбит/сек
Ширина : 1920 пикселей
Высота : 1080 пикселей
Соотношение сторон : 16:9
Цветовое пространство : YUV
Субдискретизация насыщенности : 4:2:0
Битовая глубина : 8 бит
Тип развёртки : Прогрессивная
Размер потока : 2,11 Гбайт (99%)
Аудио
Идентификатор : 2
Формат : AAC
Формат/Информация : Advanced Audio Codec
Профиль формата : LC
Идентификатор кодека : 40
Продолжительность : 32 м.
Вид битрейта : Переменный
Битрейт : 128 Кбит/сек
Каналы : 2 канала
Расположение каналов : Front: L R
Частота : 48,0 КГц
Метод сжатия : С потерями
Размер потока : 30,1 Мбайт (1%)
Общее
Полное имя : D:\torrent\Vajazzled-[1080p]\Vajazzled-scene 2.mp4
Формат : MPEG-4
Профиль формата : Base Media
Идентификатор кодека : isom
Размер файла : 1,48 Гбайт
Продолжительность : 23 м.
Режим общего битрейта : Переменный
Общий поток : 8966 Кбит/сек
Программа кодирования : Lavf52.16.0
Примечание : FlixEngineLinux_8.0.14.0 (www.on2.com)
Видео
Идентификатор : 1
Формат : AVC
Формат/Информация : Advanced Video Codec
Профиль формата : Baseline@L4.0
Параметр CABAC формата : Нет
Параметр ReFrames формата : 1 кадр
Параметр GOP формата : M=1, N=20
Идентификатор кодека : avc1
Идентификатор кодека/Информация : Advanced Video Coding
Продолжительность : 23 м.
Битрейт : 8832 Кбит/сек
Ширина : 1920 пикселей
Высота : 1080 пикселей
Соотношение сторон : 16:9
Цветовое пространство : YUV
Субдискретизация насыщенности : 4:2:0
Битовая глубина : 8 бит
Тип развёртки : Прогрессивная
Размер потока : 1,46 Гбайт (99%)
Аудио
Идентификатор : 2
Формат : AAC
Формат/Информация : Advanced Audio Codec
Профиль формата : LC
Идентификатор кодека : 40
Продолжительность : 23 м.
Вид битрейта : Переменный
Битрейт : 128 Кбит/сек
Каналы : 2 канала
Расположение каналов : Front: L R
Частота : 48,0 КГц
Метод сжатия : С потерями
Размер потока : 21,7 Мбайт (1%)
Общее
Полное имя : D:\torrent\Vajazzled-[1080p]\Vajazzled-scene 3.mp4
Формат : MPEG-4
Профиль формата : Base Media
Идентификатор кодека : isom
Размер файла : 1,94 Гбайт
Продолжительность : 30 м.
Режим общего битрейта : Переменный
Общий поток : 9207 Кбит/сек
Программа кодирования : Lavf52.16.0
Примечание : FlixEngineLinux_8.0.14.0 (www.on2.com)
Видео
Идентификатор : 1
Формат : AVC
Формат/Информация : Advanced Video Codec
Профиль формата : Baseline@L4.0
Параметр CABAC формата : Нет
Параметр ReFrames формата : 1 кадр
Параметр GOP формата : M=1, N=20
Идентификатор кодека : avc1
Идентификатор кодека/Информация : Advanced Video Coding
Продолжительность : 30 м.
Битрейт : 9073 Кбит/сек
Ширина : 1920 пикселей
Высота : 1080 пикселей
Соотношение сторон : 16:9
Цветовое пространство : YUV
Субдискретизация насыщенности : 4:2:0
Битовая глубина : 8 бит
Тип развёртки : Прогрессивная
Размер потока : 1,92 Гбайт (99%)
Аудио
Идентификатор : 2
Формат : AAC
Формат/Информация : Advanced Audio Codec
Профиль формата : LC
Идентификатор кодека : 40
Продолжительность : 30 м.
Вид битрейта : Переменный
Битрейт : 128 Кбит/сек
Каналы : 2 канала
Расположение каналов : Front: L R
Частота : 48,0 КГц
Метод сжатия : С потерями
Размер потока : 27,7 Мбайт (1%)
Общее
Полное имя : D:\torrent\Vajazzled-[1080p]\Vajazzled-scene 4.mp4
Формат : MPEG-4
Профиль формата : Base Media
Идентификатор кодека : isom
Размер файла : 2,02 Гбайт
Продолжительность : 31 м.
Режим общего битрейта : Переменный
Общий поток : 9142 Кбит/сек
Программа кодирования : Lavf52.16.0
Примечание : FlixEngineLinux_8.0.14.0 (www.on2.com)
Видео
Идентификатор : 1
Формат : AVC
Формат/Информация : Advanced Video Codec
Профиль формата : Baseline@L4.0
Параметр CABAC формата : Нет
Параметр ReFrames формата : 1 кадр
Параметр GOP формата : M=1, N=20
Идентификатор кодека : avc1
Идентификатор кодека/Информация : Advanced Video Coding
Продолжительность : 31 м.
Битрейт : 9008 Кбит/сек
Ширина : 1920 пикселей
Высота : 1080 пикселей
Соотношение сторон : 16:9
Цветовое пространство : YUV
Субдискретизация насыщенности : 4:2:0
Битовая глубина : 8 бит
Тип развёртки : Прогрессивная
Размер потока : 1,99 Гбайт (99%)
Аудио
Идентификатор : 2
Формат : AAC
Формат/Информация : Advanced Audio Codec
Профиль формата : LC
Идентификатор кодека : 40
Продолжительность : 31 м.
Вид битрейта : Переменный
Битрейт : 128 Кбит/сек
Каналы : 2 канала
Расположение каналов : Front: L R
Частота : 48,0 КГц
Метод сжатия : С потерями
Размер потока : 29,0 Мбайт (1%)
Общее
Полное имя : D:\torrent\Vajazzled-[1080p]\Vajazzled-scene 5.mp4
Формат : MPEG-4
Профиль формата : Base Media
Идентификатор кодека : isom
Размер файла : 2,14 Гбайт
Продолжительность : 33 м.
Режим общего битрейта : Переменный
Общий поток : 9268 Кбит/сек
Программа кодирования : Lavf52.16.0
Примечание : FlixEngineLinux_8.0.14.0 (www.on2.com)
Видео
Идентификатор : 1
Формат : AVC
Формат/Информация : Advanced Video Codec
Профиль формата : Baseline@L4.0
Параметр CABAC формата : Нет
Параметр ReFrames формата : 1 кадр
Параметр GOP формата : M=1, N=20
Идентификатор кодека : avc1
Идентификатор кодека/Информация : Advanced Video Coding
Продолжительность : 33 м.
Битрейт : 9134 Кбит/сек
Ширина : 1920 пикселей
Высота : 1080 пикселей
Соотношение сторон : 16:9
Цветовое пространство : YUV
Субдискретизация насыщенности : 4:2:0
Битовая глубина : 8 бит
Тип развёртки : Прогрессивная
Размер потока : 2,11 Гбайт (99%)
Аудио
Идентификатор : 2
Формат : AAC
Формат/Информация : Advanced Audio Codec
Профиль формата : LC
Идентификатор кодека : 40
Продолжительность : 33 м.
Вид битрейта : Переменный
Битрейт : 128 Кбит/сек
Каналы : 2 канала
Расположение каналов : Front: L R
Частота : 48,0 КГц
Метод сжатия : С потерями
Размер потока : 30,3 Мбайт (1%)


Качество: 1080p | Формат видео: MP4
Video: MPEG4 Video (H264) 1920x1080 [Video]
Audio: AAC 48000Hz stereo 1536kbps [Audio]
pb.wtf



pack Скачать Сияющая киска через торрент http://i31.fastpic.ru/big/2011/1101/91/945dd32326ffc4442b69532e22340491.jpg Скачать фильм Сияющая киска через торрент бесплантно в хорошем качестве Описание: Prepare to be dazzled, these chicks are vajazzled! These sluts have the skin-bling to fire up your ding-a-ling! Sparkling pussies ... 4.6 10 10
Info! Золотая раздача, скачанное не засчитывается.
Торрент: Зарегистрирован [2011-11-01 14:39] · скачан: 156 раз
Статус: √ проверено
Размер: 11.61 GB
Как cкачать? Как скачать Сияющая киска через торрент | qTorrent

28-11-2019 20:33  

Отключить всю рекламу на сайте

    Дорогой пользователь! Огромная просьба, поблагодарите релизера, оцените раздачу и оставьте свои комментарий, если Вы скачали Сияющая киска через торрент бесплатно! Внесите свою лепту в развитие PiratBit!
    Комментировать посты могут только пользователи прошедшие не сложную регистрацию
    Показать сообщения:    

    Сияющая киска через торрент
    Скачать бесплатно Сияющая киска
    Сияющая киска скачать торрент
    Сияющая киска смотреть онлайн
    Cкачать фильм Сияющая киска бесплатно
    Сияющая киска скачать торрент в хорошем качестве
    Сияющая киска смотреть онлайн бесплатно в хорошем качестве


    Вы не можете начинать темы
    Вы не можете отвечать на сообщения
    Вы не можете редактировать свои сообщения
    Вы не можете удалять свои сообщения
    Вы не можете голосовать в опросах
    Вы не можете прикреплять файлы к сообщениям
    Вы можете скачивать файлы