2 сезон

iTunes

1 сезон

1

iTunes

iTunes

iTunes

1 сезон

RePack

30

ИГРА 18+

pack

ВАЖНО

!!Акция!!

Alien_RageХит недели

RePack

MK11
pack

Забери бонус

RePack

jed

!!Акция!!

Alien_Rage

RePack

fifa19

RePack

Assassins Creed: Odyssey

RePack

NEED FOR SPEED™ PAYBACK

4 сезон

9 сезон

Бесстыжие 9 сезон

Все сериалы

все сериалы на PB.wtf

RePack

FAR CRY 5
  

Я Поцеловалa Девочку / I Kissed A Girl (Twistys) [2011., All Girl / Lesbian, 1080p, HDTV] pb.wtf

Я Поцеловалa Девочку через торрент pb.wtf

Размер: 3.49 GB | Добавлен: 8 лет 11 мес. назад | Торрент скачан:322 раза
Скачать  

01-11-2011 15:44 Я Поцеловалa Девочку Скачать торрент  

I Kissed A Girl / Я Поцеловалa Девочку

Год производства: 2011г.
Страна: USA
Язык: Английский
Жанр: All Girl / Lesbian
Продолжительность: 1h55m05s
Студия: Twistys
В ролях: Black Angelika, Capri Anderson, Elis Diamond, Georgia Jones, Harmony Paxson, Jana Jordan, Jayme Langford, Rihanna Samuel, Ryan Keely
Описание: But did these bitches like it? Looks like it! Starring Jana Jordan and Jayme Langford!
Доп. информация: http://www.adultdvdempire.com/1566167/i-kissed-a-girl-porn-movies.html



Общее
Уникальный идентификатор : 295169123074027934586549748472518744116 (0xDE0F8159F18A712B18DFB3BBE5F31834)
Полное имя : D:\torrent\squirttv-allgirlmuffmunchers.mkv
Формат : Matroska
Версия формата : Version 2
Размер файла : 3,49 Гбайт
Продолжительность : 1 ч. 29 м.
Общий поток : 5607 Кбит/сек
Программа кодирования : HandBrake 4140svn
Библиотека кодирования : libmkv 0.6.4.2
Видео
Идентификатор : 1
Формат : AVC
Формат/Информация : Advanced Video Codec
Профиль формата : High@L4.1
Параметр CABAC формата : Да
Параметр ReFrames формата : 4 кадра
Идентификатор кодека : V_MPEG4/ISO/AVC
Продолжительность : 1 ч. 29 м.
Битрейт : 5239 Кбит/сек
Ширина : 1920 пикселей
Высота : 1080 пикселей
Соотношение сторон : 16:9
Частота кадров : 25,000 кадров/сек
Цветовое пространство : YUV
Субдискретизация насыщенности : 4:2:0
Битовая глубина : 8 бит
Тип развёртки : Прогрессивная
Бит/(Пиксели*Кадры) : 0.101
Размер потока : 3,26 Гбайт (93%)
Библиотека кодирования : x264 core 115
Настройки программы : cabac=1 / ref=4 / deblock=1:0:0 / analyse=0x3:0x113 / me=umh / subme=7 / psy=1 / psy_rd=1.00:0.00 / mixed_ref=1 / me_range=16 / chroma_me=1 / trellis=1 / 8x8dct=1 / cqm=0 / deadzone=21,11 / fast_pskip=0 / chroma_qp_offset=-2 / threads=12 / sliced_threads=0 / nr=0 / decimate=1 / interlaced=0 / bluray_compat=0 / constrained_intra=0 / bframes=3 / b_pyramid=2 / b_adapt=1 / b_bias=0 / direct=1 / weightb=1 / open_gop=0 / weightp=2 / keyint=250 / keyint_min=25 / scenecut=40 / intra_refresh=0 / rc_lookahead=40 / rc=crf / mbtree=1 / crf=20.0 / qcomp=0.60 / qpmin=3 / qpmax=69 / qpstep=4 / ip_ratio=1.40 / aq=1:1.00
Язык : English
Основные цвета : BT.709-5, BT.1361, IEC 61966-2-4, SMPTE RP177
Характеристики трансфера : BT.709-5, BT.1361
Коэффициенты матрицы : BT.709-5, BT.1361, IEC 61966-2-4 709, SMPTE RP177
Аудио
Идентификатор : 2
Формат : AC-3
Формат/Информация : Audio Coding 3
Расширение режима : CM (complete main)
Идентификатор кодека : A_AC3
Продолжительность : 1 ч. 29 м.
Вид битрейта : Постоянный
Битрейт : 256 Кбит/сек
Каналы : 2 канала
Расположение каналов : Front: L R
Частота : 48,0 КГц
Битовая глубина : 16 бит
Метод сжатия : С потерями
Размер потока : 163 Мбайт (5%)
Язык : English


Качество: 1080p | Формат видео: mkv
Video: MPEG4 Video (H264) 1920x1080 25.00fps [Video]
Audio: Dolby AC3 48000Hz stereo [Audio]
pb.wtf



pack Скачать Я Поцеловалa Девочку через торрент http://i29.fastpic.ru/big/2011/1101/30/66957acf45a8bfc7fa8b3c77492b4830.jpg Скачать фильм Я Поцеловалa Девочку через торрент бесплантно в хорошем качестве Описание: But did these bitches like it? Looks like it! Starring Jana Jordan and Jayme Langford!Доп. информация: ... 10 10 1
Info! Золотая раздача, скачанное не засчитывается.
Торрент: Зарегистрирован [2011-11-01 15:44] · скачан: 322 раз
Статус: √ проверено
Размер: 3.49 GB
Как cкачать? Как скачать Я Поцеловалa Девочку через торрент | qTorrent

28-11-2019 20:33  

Отключить всю рекламу на сайте

    Дорогой пользователь! Огромная просьба, поблагодарите релизера, оцените раздачу и оставьте свои комментарий, если Вы скачали Я Поцеловалa Девочку через торрент бесплатно! Внесите свою лепту в развитие PiratBit!
    Комментировать посты могут только пользователи прошедшие не сложную регистрацию
    Показать сообщения:    

    Я Поцеловалa Девочку через торрент
    Скачать бесплатно Я Поцеловалa Девочку
    Я Поцеловалa Девочку скачать торрент
    Я Поцеловалa Девочку смотреть онлайн
    Cкачать фильм Я Поцеловалa Девочку бесплатно
    Я Поцеловалa Девочку скачать торрент в хорошем качестве
    Я Поцеловалa Девочку смотреть онлайн бесплатно в хорошем качестве


    Вы не можете начинать темы
    Вы не можете отвечать на сообщения
    Вы не можете редактировать свои сообщения
    Вы не можете удалять свои сообщения
    Вы не можете голосовать в опросах
    Вы не можете прикреплять файлы к сообщениям
    Вы можете скачивать файлы