Ссылка на приватное зеркало нашего сайта всего за 1$. Внимание количество ограничено!!!

2 сезон

iTunes

1 сезон

1

2 сезон

2 сезон

iTunes

1 сезон

RePack

30

Новинка

ВАЖНО

ИГРА 18+

pack

RePack

MK11
pack

Забери бонус

RePack

jed

!!Акция!!

Alien_Rage

RePack

fifa19

RePack

Assassins Creed: Odyssey

RePack

NEED FOR SPEED™ PAYBACK

4 сезон

9 сезон

Бесстыжие 9 сезон

Все сериалы

все сериалы на PB.wtf

RePack

FAR CRY 5
  

Новенькая / New Girl / Сезон: 1 / Серии: 1-8 (24) (Джейк Кэздан) [2011 г., США, Комедия, WEB-DLRip 400р] (DVO Ozz, Original) pb.wtf

Новенькая через торрент pb.wtf

Размер: 3.48 GB | Добавлен: 8 лет 11 мес. назад | Торрент скачан:3 раза
Скачать  

05-11-2011 21:40 Новенькая Скачать торрент  


Новенькая / New Girl
Сезон 1, Серии 1-8 (24)

Год выпуска: 2011
Страна: США
Жанр: Комедия
Продолжительность: ~24 минуты
Перевод: Профессиональный (двухголосый) -
Режиссер: Джейк Кэздан
В ролях: Зои Дешанель, Дэймон Уайанс мл., Джэйк М. Джонсон, Джиллиан Вигмэн, Ханна Симона, Макс Гринфилд, Мэри Элизабет Эллис, Стив Баннос, Хейли Норман, Джек Янг
Описание: Комедия о сексуальных отношениях мужчин и женщин. В центре сюжета — Джессика, оптимистичная, но несчастная в любви учительница начальной школы, которая после последнего разрыва въезжает в квартиру, где уже живут три парня.
Рип: >^Stargate_Universe ^<
Качество: WEB-DLRip 400р
Формат: AVI
Видео кодек: XviD
Аудио кодек: MP3
Видео: 720x400 (16:9), 23.976 fps, ~2 043 kbps, ~0.296 bit/pixel
Аудио #1: 48 kHz, 2 ch, 128 kbps
Аудио #2: 48 kHz, 2 ch, 128 kbps
Пилот / Pilot
Криптонит / Kryptonite
Свадьба / Wedding
Naked / Голые
General
Complete name : F:\Videos\New.Girl.s01.WEB-DLRip.Ozz.TV\New Girl.S01E01.400p.WEB-DL.Rus.[Ozz.tv].Eng.avi
Format : AVI
Format/Info : Audio Video Interleave
File size : 398 MiB
Duration : 24mn 2s
Overall bit rate : 2 313 Kbps
Writing application : VirtualDubModRus 1.5.10.2 (build 2542/release)
Writing library : VirtualDubMod build 2542/release
Video
ID : 0
Format : MPEG-4 Visual
Format profile : Advanced Simple@L5
Format settings, BVOP : 2
Format settings, QPel : No
Format settings, GMC : No warppoints
Format settings, Matrix : Default (MPEG)
Muxing mode : Packed bitstream
Codec ID : XVID
Codec ID/Hint : XviD
Duration : 24mn 2s
Bit rate : 2 043 Kbps
Width : 720 pixels
Height : 400 pixels
Display aspect ratio : 16:9
Frame rate : 23.976 fps
Color space : YUV
Chroma subsampling : 4:2:0
Bit depth : 8 bits
Scan type : Progressive
Compression mode : Lossy
Bits/(Pixel*Frame) : 0.296
Stream size : 351 MiB (88%)
Writing library : XviD 64
Audio #1
ID : 1
Format : MPEG Audio
Format version : Version 1
Format profile : Layer 3
Mode : Joint stereo
Mode extension : MS Stereo
Codec ID : 55
Codec ID/Hint : MP3
Duration : 24mn 2s
Bit rate mode : Constant
Bit rate : 128 Kbps
Channel(s) : 2 channels
Sampling rate : 48.0 KHz
Compression mode : Lossy
Stream size : 22.0 MiB (6%)
Alignment : Aligned on interleaves
Interleave, duration : 42 ms (1.00 video frame)
Interleave, preload duration : 504 ms
Writing library : LAME3.98ЄЄЄЄЄЄЄЄЄЄЄЄ
Audio #2
ID : 2
Format : MPEG Audio
Format version : Version 1
Format profile : Layer 3
Mode : Joint stereo
Mode extension : MS Stereo
Codec ID : 55
Codec ID/Hint : MP3
Duration : 24mn 2s
Bit rate mode : Constant
Bit rate : 128 Kbps
Channel(s) : 2 channels
Sampling rate : 48.0 KHz
Compression mode : Lossy
Stream size : 22.0 MiB (6%)
Alignment : Aligned on interleaves
Interleave, duration : 42 ms (1.00 video frame)
Interleave, preload duration : 504 ms
Writing library : LAME3.98.2
Раздача ведётся путём добавления новых серий; при каждом добавлении создаётся новый торрент. Чтобы начать докачку новой серии, пользователям необходимо сделать следующее:
(1) остановить скачивание,
(2) удалить старый торрент у себя из клиента (старые серии удалять не надо),
(3) скачать новый торрент и запустить его у себя в клиенте вместо старого, при этом указать клиенту путь в старую папку куда и должно происходить скачивание новых серий.
Ваш клиент при этом должен произвести хеширование (проверку) старой папки (если не производит сам - помогите ему сделать это), и будет докачивать только те серии которых у вас ещё нет. Старые серии при этом не удаляются, а продолжают раздаваться!
Eсли вы уже удалили старые серии, то предотвратить повторную закачку старых серий можно, отжав галочку в соответствующих местах при запуске нового торрента. По возможности, желательно не удалять старые серии как можно дольше чтобы релизёр не столько продолжал раздавать старые серии, а смог сконцентрироваться на новых.


pb.wtf



Скачать Новенькая через торрент http://i30.fastpic.ru/big/2011/0912/e7/2d5856e99d37245e545b105c19596ee7.png Скачать фильм Новенькая через торрент бесплантно в хорошем качестве Описание: Комедия о сексуальных отношениях мужчин и женщин. В центре сюжета — Джессика, оптимистичная, но несчастная в любви учительница ... 4.8 10 13
Info! Золотая раздача, скачанное не засчитывается.
Торрент: Зарегистрирован [2011-12-17 09:59] · скачан: 3 раз
Статус: √ проверено
Размер: 3.48 GB
Как cкачать? Как скачать Новенькая через торрент | qTorrent



Последний раз редактировалось: Stargate_Universe (2011-12-17 09:59), всего редактировалось 1 раз

28-11-2019 20:33  

Отключить всю рекламу на сайте

12-11-2011 20:21 Новенькая Скачать торрент  

продолжение будет или на этом всё ?pb.wtf



14-11-2011 06:23 Новенькая Скачать торрент  

Неплохой сериал, хорошие шутки, отличные телки!pb.wtf



20-11-2011 17:37 Новенькая Скачать торрент  

а чего только 4, когда уже 6 естьpb.wtf



    Дорогой пользователь! Огромная просьба, поблагодарите релизера, оцените раздачу и оставьте свои комментарий, если Вы скачали Новенькая через торрент бесплатно! Внесите свою лепту в развитие PiratBit!
    Комментировать посты могут только пользователи прошедшие не сложную регистрацию
    Показать сообщения:    

    Новенькая через торрент
    Скачать бесплатно Новенькая
    Новенькая скачать торрент
    Новенькая смотреть онлайн
    Cкачать фильм Новенькая бесплатно
    Новенькая скачать торрент в хорошем качестве
    Новенькая смотреть онлайн бесплатно в хорошем качестве


    Вы не можете начинать темы
    Вы не можете отвечать на сообщения
    Вы не можете редактировать свои сообщения
    Вы не можете удалять свои сообщения
    Вы не можете голосовать в опросах
    Вы не можете прикреплять файлы к сообщениям
    Вы можете скачивать файлы