MEGA SALE -50% FORZA HORIZON 4 ULTIMATE+ВСЕ DLC+ОНЛАЙН всего за 599р. 299 руб. (супер цена). Внимание количество ограничено!!!

iTunes

1+1

iTunes

мы

iTunes

1

iTunes

Чернобыль

iTunes

Ральф против интернета

Лицензия

ПШазам

Лицензия

Игра престолов

Лицензия

30
pack

ВАЖНО

!!Акция!!

Alien_RageХит недели

RePack

Resident Evil 21

ИГРА 18+

pack

RePack

Metro:Exodus

!!Акция!!

Alien_Rage

RePack

fifa19

RePack

Assassins Creed: Odyssey

RePack

NEED FOR SPEED™ PAYBACK

3 сезон

9 сезон

Бесстыжие 9 сезон

Все сериалы

все сериалы на PB.wtf

RePack

FAR CRY 5
Ребята, катастрофически не хватает 7730р. для оплаты серверов за ИЮЛЬ (всвязи с блокировками трафик упал в 3 раза), 1-2р., выручайте.
  

Вечерний Квартал (Выпуск 55) (эфир: 05.11.2011) [2011 г., Юмор, SATRip] pb.wtf

Скачать  

05-11-2011 23:06 Вечерний Квартал Скачать торрент  

[img=right]http:// СПАМ

Вечерний Квартал (Выпуск 55) (эфир: 05.11.2011)

Год выпуска: 2011
Страна: Украина, ТОВ "Студія Квартал-95"
Жанр: Юмор
Продолжительность: 1 ч. 29 м.
Перевод: Не требуется

В ролях: Владимир Зеленский, Юрий Крапов, Денис Манжосов, Елена Кравец, Евгений Кошевой, Сергей Казанин, Александр Пикалов, Юрий Корявченков, Аркадий Лапухин

Описание: Ребята из "Вечернего квартала" продолжают устанавливать свои правила. И ни авторитет звезд шоу-бизнеса, ни статус влиятельных политиков, ни сам "президент Украины" не могут этому помешать. Здесь правила одни для всех, и "квартальщики" внимательно следят за тем, чтобы все "забавные законы" соблюдались. Злостных правонарушителей ребята из Квартала определяют по отсутствию улыбки на лице. Но в сегодня такие вряд ли найдутся, ведь у нас - юмор высшего класса от "Вечернего квартала".

Доп. информация:
Съёмка: 26-27.09.2011
Эфир: 05.11.2011

Подробности:
- Утро после Дня независимости, или Мальчишник в Киеве
- Песня о нечисти
- Политическое Discovery
- "Любовь-морковь" с Кристиной Орбакайте
- Кристина Орбакайте - "Нежная"
- Выезд из турецкого отеля
- Буриме с Колей Серьгой
- Коля Серьга - "Песенка оптимиста"
- Концерт Стаса Михайлова в Киеве
- Номер на бис - Дневник Л. М. Черновецкого (выпуск 52)
- Номер на бис - Л. М. Черновецкий в посольстве Израиля (выпуск 52)
- Фотовикторина с Ириной Аллегровой
- Ирина Аллегрова - "Угонщица"
- "Наша Рада": первый депутат с нетрадиционной политической ориентацией Олег Шляшко
- Артём Милевский и тренер
- Финальная песня "Янукович - молодец"

Качество: SATRip
Формат: AVI
Видео кодек: MPEG4
Аудио кодек: MP3
Видео: 720x540 (4:3), 2500 Кбит/сек,25,000 кадр/сек
Аудио: MP3 ,256 Кбит/сек,2 канала,44,1 КГц
Общее
Полное имя :post.kvn.95.kvartal.(55).avi
Формат : AVI
Формат/Информация : Audio Video Interleave
Профиль формата : OpenDML
Размер файла : 1,73 Гбайт
Продолжительность : 1 ч. 29 м.
Общий поток : 2769 Кбит/сек
Программа кодирования : Lavf53.7.0

Видео
Идентификатор : 0
Формат : MPEG-4 Visual
Идентификатор кодека : MP42
Идентификатор кодека/Информация : Microsoft MPEG-4 v2 (pre-standard)
Идентификатор кодека/Подсказка : Microsoft
Продолжительность : 1 ч. 29 м.
Битрейт : 2500 Кбит/сек
Ширина : 720 пикс.
Высота : 540 пикс.
Соотношение сторон : 4:3
Частота кадров : 25,000 кадр/сек
Метод сжатия : С потерями
Бит/(Пиксели*Кадры) : 0.257
Размер потока : 1,57 Гбайт (90%)

Аудио
Идентификатор : 1
Формат : MPEG Audio
Версия формата : Version 1
Профиль формата : Layer 3
Режим : Joint stereo
Расширение режима : MS Stereo
Идентификатор кодека : 55
Идентификатор кодека/Подсказка : MP3
Продолжительность : 1 ч. 29 м.
Вид битрейта : Постоянный
Битрейт : 256 Кбит/сек
Канал(ы) : 2 канала(ов)
Частота : 44,1 КГц
Метод сжатия : С потерями
Размер потока : 164 Мбайт (9%)
Выравнивание : Соединение по промежуткам
Продолжительность промежутка : 26 мс. (0,65 видеокадр)
Библиотека кодирования : LAME3.98.4




pb.wtf



Скачать
Чтобы иметь возможность скачивать с Торрент Трекера, нужно Зарегистрироваться

Как скачивать  ·  Рейтинг и ограничения


>> Регистрируемся здесь <<






Отзывы и комментарии о схеме читаем и пишем здесь: ---> Отзывы и комментарии о схеме

Новые благодарочки в телеграм довольных пользователей:
скриншот   скриншот   скриншот   скриншот   скриншот

12-11-2011 11:34 Вечерний Квартал Скачать торрент  

Вот интересный случай . Сколько народу скачало - хоть бы один отписался . Понравилось или нет?pb.wtf



    Дорогой пользователь! Огромная просьба, поблагодарите релизера, оцените раздачу и оставьте свои комментарий, если Вы скачали Вечерний Квартал через торрент бесплатно! Внесите свою лепту в развитие PiratBit!
    Комментировать посты могут только пользователи прошедшие не сложную регистрацию
    Показать сообщения:    

    Вечерний Квартал через торрент
    Скачать бесплатно Вечерний Квартал
    Вечерний Квартал скачать торрент
    Вечерний Квартал смотреть онлайн
    Cкачать фильм Вечерний Квартал бесплатно
    Вечерний Квартал скачать торрент в хорошем качестве
    Вечерний Квартал смотреть онлайн бесплатно в хорошем качестве


    Вы не можете начинать темы
    Вы не можете отвечать на сообщения
    Вы не можете редактировать свои сообщения
    Вы не можете удалять свои сообщения
    Вы не можете голосовать в опросах
    Вы не можете прикреплять файлы к сообщениям
    Вы не можете скачивать файлы