1 сезон

3 сезон

iTunes

1

iTunes

MVO

iTunes

13

1 сезон

RePack

30

Deluxe

pack

Лицензия

ВАЖНО

ИГРА 18+

pack

RePack

MK11

RePack

jed

RePack

fifa19

RePack

RDR2

RePack

NEED FOR SPEED™ PAYBACK

4 сезон

9 сезон

Бесстыжие 9 сезон

Все сериалы

все сериалы на PB.wtf

RePack

FAR CRY 5

Anonymous, добрый вечер, мы катастрофически не успеваем собрать деньги на оплату серверов, помогите нам пожалуйста 5,10,15р., для нас важна любая помощь . В качестве благодарности мы отключим Вам всю рекламу на сайте (укажите свой ник в строку Ваше имя)!

×
  
Magnet ссылка

Отвези меня домой / Take Me Home Tonight (Майкл Даус / Michael Dowse) [2011, драма, комедия, DVD9] R5 «Двадцатый Век Фокс СНГ» pb.wtf

Отвези меня домой через торрент pb.wtf

Размер: 6.84 GB | Добавлен: 9 лет 8 мес. назад | Торрент скачан:37 раз
Скачать  

10-11-2011 21:40 Отвези меня домой Скачать торрент  


Отвези меня домой / Take Me Home Tonight
«Best. Night. Ever.»
Страна: США, Германия
Студия: Imagine Entertainment, Internationale Filmproduktion Blackbird Dritte
Жанр: драма, комедия
Год выпуска: 2011
Мировая премьера: 2 марта 2011
Дата выхода DVD: 17 ноября 2011, «Двадцатый Век Фокс СНГ»
Продолжительность: 01:33:40
Перевод: Профессиональный (дублированный) [Лицензия]
Cубтитры: английские, немецкие, хорватские, словенские
Оригинальная аудиодорожка: английский
Режиссер: Майкл Даус / Michael Dowse
В ролях: Тофер Грейс, Анна Фэрис, Дэн Фоглер, Тереза Палмер, Крис Прэтт, Майкл Бьен, Джини Хэкетт, Люси Панч, Мишель Трахтенберг, Деметри Мартин
Описание: Главный герой закончил колледж, однако до сих пор не может найти свое дело в жизни. Его судьба должна круто измениться во время одной вечеринки.
Бонусы: нет

Качество: DVD9 R5
Формат: DVD-Video
Видео кодек: MPEG2
Аудио кодек: AC3
Видео: PAL 16:9 (720x576(0.779)) MPEG Video, 25,000 кадр/сек, 8080 Кбит/сек
Аудио #1: English (Dolby AC3, 6 ch) 448 Кбит/сек, 48,0 КГц
Аудио #2: Deutsch (Dolby AC3, 6 ch) 384 Кбит/сек, 48,0 КГц
Аудио #3: Russian (Dolby AC3, 6 ch) 384 Кбит/сек, 48,0 КГц



Title:
Size: 6.84 Gb ( 7 167 746 KBytes ) - DVD-9
Enabled regions: 1, 2, 3, 4, 5, 6, 7, 8

VTS_01 :
Play Length:
Video: PAL 16:9 (720x576) VBR, Auto Pan&Scan
Audio:
English (Dolby AC3, 2 ch)
English (Dolby AC3, 2 ch)
English (Dolby AC3, 2 ch)
Subtitles:
English
English
English
English
English
English
English
English
English
English
English

VTS_02 :
Play Length: 00:00:12
Video: PAL 16:9 (720x576) VBR, Auto Pan&Scan
Audio:
English (Dolby AC3, 2 ch)
Subtitles:
English
Deutsch
Hrvatski
Russian
Slovenian
Turkish

VTS_03 :
Play Length: 00:01:52
Video: PAL 16:9 (720x576) VBR, Auto Pan&Scan
Audio:
English (Dolby AC3, 2 ch)
Subtitles:
Deutsch
Hrvatski
Russian
Slovenian
Turkish

VTS_04 :
Play Length:
Video: PAL 16:9 (720x576) VBR, Auto Pan&Scan

VTS_05 :
Play Length: 00:01:23
Video: PAL 16:9 (720x576) VBR, Auto Pan&Scan
Audio:
English (Dolby AC3, 2 ch)
Subtitles:
Deutsch
Hrvatski
Russian
Slovenian
Turkish

VTS_06 :
Play Length: 00:02:27
Video: PAL 16:9 (720x576) VBR, Auto Pan&Scan
Audio:
English (Dolby AC3, 2 ch)
Subtitles:
English
Deutsch
Hrvatski
Russian
Slovenian
Turkish

VTS_07 :
Play Length:
Video: PAL 16:9 (720x576) VBR, Auto Pan&Scan

VTS_08 :
Play Length:
Video: PAL 16:9 (720x576) VBR, Auto Pan&Scan

VTS_09 :
Play Length: 01:33:40
Video: PAL 16:9 (720x576) VBR, Auto Pan&Scan
Audio:
English (Dolby AC3, 6 ch)
Deutsch (Dolby AC3, 6 ch)
Russian (Dolby AC3, 6 ch)
Subtitles:
English
Deutsch
Hrvatski
Slovenian
Turkish
Ukrainian
Deutsch
Russian
Общее
Полное имя : G:\Новинки 2011\Otvezi.menja.domoj.2011.DVD9\VIDEO_TS\VTS_09_1.VOB
Формат : MPEG-PS
Размер файла : 1024 Мбайт
Продолжительность : 15 м.
Общий поток : 9485 Кбит/сек

Видео
Идентификатор : 224 (0xE0)
Формат : MPEG Video
Версия формата : Version 2
Профиль формата : Main@Main
Параметр BVOP формата : Да
Параметр матрицы формата : Выборочная
Продолжительность : 15 м.
Вид битрейта : Переменный
Битрейт : 8080 Кбит/сек
Максимальный битрейт : 9800 Кбит/сек
Ширина : 720 пикселей
Высота : 576 пикселей
Соотношение сторон : 16:9
Частота кадров : 25,000 кадров/сек
Стандарт вещания : PAL
Цветовое пространство : YUV
Субдискретизация насыщенности : 4:2:0
Битовая глубина : 8 бит
Тип развёртки : Чересстрочная
Порядок развёртки : Верхнее поле первое
Метод сжатия : С потерями
Бит/(Пиксели*Кадры) : 0.779
Размер потока : 872 Мбайт (85%)

Аудио #1
Идентификатор : 189 (0xBD)-128 (0x80)
Формат : AC-3
Формат/Информация : Audio Coding 3
Расширение режима : CM (complete main)
Режим смешивания : DVD-Video
Продолжительность : 15 м.
Вид битрейта : Постоянный
Битрейт : 448 Кбит/сек
Каналы : 6 каналов
Расположение каналов : Front: L C R, Side: L R, LFE
Частота : 48,0 КГц
Битовая глубина : 16 бит
Метод сжатия : С потерями
Размер потока : 48,3 Мбайт (5%)

Аудио #2
Идентификатор : 189 (0xBD)-129 (0x81)
Формат : AC-3
Формат/Информация : Audio Coding 3
Расширение режима : CM (complete main)
Режим смешивания : DVD-Video
Продолжительность : 15 м.
Вид битрейта : Постоянный
Битрейт : 384 Кбит/сек
Каналы : 6 каналов
Расположение каналов : Front: L C R, Side: L R, LFE
Частота : 48,0 КГц
Битовая глубина : 16 бит
Метод сжатия : С потерями
Размер потока : 41,4 Мбайт (4%)

Аудио #3
Идентификатор : 189 (0xBD)-130 (0x82)
Формат : AC-3
Формат/Информация : Audio Coding 3
Расширение режима : CM (complete main)
Режим смешивания : DVD-Video
Продолжительность : 15 м.
Вид битрейта : Постоянный
Битрейт : 384 Кбит/сек
Каналы : 6 каналов
Расположение каналов : Front: L C R, Side: L R, LFE
Частота : 48,0 КГц
Битовая глубина : 16 бит
Метод сжатия : С потерями
Размер потока : 41,4 Мбайт (4%)










pb.wtf



Скачать Отвези меня домой через торрент http://i4.imageban.ru/out/2011/11/10/fc9cb807bcf435d696eb795099ed763d.png Скачать фильм Отвези меня домой через торрент бесплантно в хорошем качестве Описание: Главный герой закончил колледж, однако до сих пор не может найти свое дело в жизни. Его судьба должна круто измениться во время ... 5 10 2
Info! Золотая раздача, скачанное не засчитывается.
Торрент: Зарегистрирован [2011-11-10 21:40] · скачан: 37 раз
Статус: √ проверено
Размер: 6.84 GB
Как cкачать? Как скачать Отвези меня домой через торрент | UTorrent

28-11-2019 20:33  

Отключить всю рекламу на сайте

    Дорогой пользователь! Огромная просьба, поблагодарите релизера, оцените раздачу и оставьте свои комментарий, если Вы скачали Отвези меня домой через торрент бесплатно! Внесите свою лепту в развитие PiratBit!
    Комментировать посты могут только пользователи прошедшие не сложную регистрацию
    Показать сообщения:    

    Отвези меня домой через торрент
    Скачать бесплатно Отвези меня домой
    Отвези меня домой скачать торрент
    Отвези меня домой смотреть онлайн
    Cкачать фильм Отвези меня домой бесплатно
    Отвези меня домой скачать торрент в хорошем качестве
    Отвези меня домой смотреть онлайн бесплатно в хорошем качестве


    Вы не можете начинать темы
    Вы не можете отвечать на сообщения
    Вы не можете редактировать свои сообщения
    Вы не можете удалять свои сообщения
    Вы не можете голосовать в опросах
    Вы не можете прикреплять файлы к сообщениям
    Вы можете скачивать файлы