1 сезон

3 сезон

iTunes

1

iTunes

MVO

iTunes

13

1 сезон

RePack

30

Deluxe

pack

Лицензия

ВАЖНО

ИГРА 18+

pack

RePack

MK11

RePack

jed

RePack

fifa19

RePack

RDR2

RePack

NEED FOR SPEED™ PAYBACK

4 сезон

9 сезон

Бесстыжие 9 сезон

Все сериалы

все сериалы на PB.wtf

RePack

FAR CRY 5

Anonymous, доброй ночи, мы катастрофически не успеваем собрать деньги на оплату серверов, помогите нам пожалуйста 5,10,15р., для нас важна любая помощь . В качестве благодарности мы отключим Вам всю рекламу на сайте (укажите свой ник в строку Ваше имя)!

×
  
Magnet ссылка

Это очень забавная история / It's Kind of a Funny Story (Анна Боден, Райан Флек / Anna Boden, Ryan Fleck) [2010, драма, комедия, DVD9] R5 «Двадцатый Век Фокс СНГ» pb.wtf

Это очень забавная история через торрент pb.wtf

Размер: 7.76 GB | Добавлен: 9 лет 8 мес. назад | Торрент скачан:21 раз
Скачать  

10-11-2011 22:38 Это очень забавная история Скачать торрент  


Это очень забавная история / It's Kind of a Funny Story
«Sometimes what's in your head isn't as crazy as you think.»
Страна: США
Студия: Focus Features, Gowanus Projections, Journeyman Pictures, Misher Films, Wayfare Entertainment
Жанр: драма, комедия
Год выпуска: 2010
Мировая премьера: 26 сентября 2010
Дата выхода DVD: 17 ноября 2011, «Двадцатый Век Фокс СНГ»
Продолжительность: 01:37:02
Перевод: Профессиональный (дублированный) [Лицензия]
Cубтитры: английские, мадьярские, украинские, эстонские, латышские, литовские
Оригинальная аудиодорожка: английский
Режиссер: Анна Боден, Райан Флек / Anna Boden, Ryan Fleck
В ролях: Кейр Гилкрист, Зак Галифианакис, Дана ДеВестерн, Лорен Грэм, Джим Гэффиган, Карен Чилтон, Аасиф Мандви, Джаред Голдштейн, Алан Айсинберг, Зои Кравиц
Описание: 16-летний Крэйг переживает кризис подросткового возраста и пытается найти помощь в клинике для душевнобольных. Там он случайно попадает в отделение для взрослых, а один из пациентов Бобби вскоре становится наставником Крэйга и одновременно — его протеже. Юноша также проникается симпатией к одной из пациенток — своей ровеснице Ноэлль. Всего за пять дней Крэйгу предстоит очень многое узнать о жизни, дружбе, любви и о тех трудностях, с которыми сопряжена пора взросления.
Бонусы: Удаленные сцены, неудачные будни, взгляд изнутри на "Это очень забавная история", "Это очень забавная история" премьера в Нью-Йорке

Качество: DVD9 R5
Формат: DVD-Video
Видео кодек: MPEG2
Аудио кодек: AC3
Видео: PAL 16:9 (720x576(0.755)) MPEG Video, 25,000 кадр/сек, 7830 Кбит/сек
Аудио #1: English (Dolby AC3, 6 ch) 384 Кбит/сек, 48,0 КГц
Аудио #2: Magyar (Dolby AC3, 6 ch) 384 Кбит/сек, 48,0 КГц
Аудио #3: Russian (Dolby AC3, 6 ch) 384 Кбит/сек, 48,0 КГц



Title: Рабочий
Size: 7.76 Gb ( 8 132 646 KBytes ) - DVD-9
Enabled regions: 1, 2, 3, 4, 5, 6, 7, 8

VTS_01 :
Play Length: 00:00:12+00:01:52+00:02:27
Video: PAL 16:9 (720x576) VBR, Auto Letterboxed
Audio:
English (Dolby AC3, 2 ch)
Subtitles:
English
Magyar
Russian

VTS_02 :
Play Length: 01:37:02
Video: PAL 16:9 (720x576) VBR, Auto Letterboxed
Audio:
English (Dolby AC3, 6 ch)
Magyar (Dolby AC3, 6 ch)
Russian (Dolby AC3, 6 ch)
Subtitles:
English
Magyar
Ukrainian
Estonian
Latvian
Lithuanian
Magyar
Russian

VTS_03 :
Play Length: 00:00:23
Video: PAL 16:9 (720x576) VBR, Auto Letterboxed
Audio:
English (Dolby AC3, 6 ch)

VTS_04 :
Play Length: 00:00:14
Video: PAL 16:9 (720x576) VBR, Auto Letterboxed
Audio:
English (Dolby AC3, 6 ch)

VTS_05 :
Play Length:
Video: PAL 16:9 (720x576) VBR, Auto Letterboxed

VTS_06 :
Play Length: 00:08:56+00:03:23+00:01:17+00:00:30+00:00:37+00:02:59+00:11:30+00:03:16+00:02:33
Video: PAL 16:9 (720x576) VBR, Auto Letterboxed
Audio:
English (Dolby AC3, 2 ch)
Subtitles:
English
Magyar
Russian

VTS_07 :
Play Length: 00:00:09+00:00:08
Video: PAL 16:9 (720x576) VBR, Auto Letterboxed
Audio:
English (Dolby AC3, 2 ch)
Общее
Полное имя : G:\Новинки 2011\Jeto.ochen'.zabavnaja.istorija.2010.DVD9\VIDEO_TS\VTS_02_1.VOB
Формат : MPEG-PS
Размер файла : 1024 Мбайт
Продолжительность : 15 м.
Общий поток : 9164 Кбит/сек

Видео
Идентификатор : 224 (0xE0)
Формат : MPEG Video
Версия формата : Version 2
Профиль формата : Main@Main
Параметр BVOP формата : Да
Параметр матрицы формата : Выборочная
Продолжительность : 15 м.
Вид битрейта : Переменный
Битрейт : 7830 Кбит/сек
Максимальный битрейт : 9800 Кбит/сек
Ширина : 720 пикселей
Высота : 576 пикселей
Соотношение сторон : 16:9
Частота кадров : 25,000 кадров/сек
Стандарт вещания : PAL
Цветовое пространство : YUV
Субдискретизация насыщенности : 4:2:0
Битовая глубина : 8 бит
Тип развёртки : Чересстрочная
Порядок развёртки : Верхнее поле первое
Метод сжатия : С потерями
Бит/(Пиксели*Кадры) : 0.755
Размер потока : 875 Мбайт (85%)

Аудио #1
Идентификатор : 189 (0xBD)-128 (0x80)
Формат : AC-3
Формат/Информация : Audio Coding 3
Расширение режима : CM (complete main)
Режим смешивания : DVD-Video
Продолжительность : 15 м.
Вид битрейта : Постоянный
Битрейт : 384 Кбит/сек
Каналы : 6 каналов
Расположение каналов : Front: L C R, Side: L R, LFE
Частота : 48,0 КГц
Битовая глубина : 16 бит
Метод сжатия : С потерями
Размер потока : 42,9 Мбайт (4%)

Аудио #2
Идентификатор : 189 (0xBD)-129 (0x81)
Формат : AC-3
Формат/Информация : Audio Coding 3
Расширение режима : CM (complete main)
Режим смешивания : DVD-Video
Продолжительность : 15 м.
Вид битрейта : Постоянный
Битрейт : 384 Кбит/сек
Каналы : 6 каналов
Расположение каналов : Front: L C R, Side: L R, LFE
Частота : 48,0 КГц
Битовая глубина : 16 бит
Метод сжатия : С потерями
Размер потока : 42,9 Мбайт (4%)

Аудио #3
Идентификатор : 189 (0xBD)-130 (0x82)
Формат : AC-3
Формат/Информация : Audio Coding 3
Расширение режима : CM (complete main)
Режим смешивания : DVD-Video
Продолжительность : 15 м.
Вид битрейта : Постоянный
Битрейт : 384 Кбит/сек
Каналы : 6 каналов
Расположение каналов : Front: L C R, Side: L R, LFE
Частота : 48,0 КГц
Битовая глубина : 16 бит
Метод сжатия : С потерями
Размер потока : 42,9 Мбайт (4%)










pb.wtf



Скачать Это очень забавная история через торрент http://i3.imageban.ru/out/2011/11/10/ba7607516a072bd5c2b0e3cbd062d5d7.jpg Скачать фильм Это очень забавная история через торрент бесплантно в хорошем качестве Описание: 16-летний Крэйг переживает кризис подросткового возраста и пытается найти помощь в клинике для душевнобольных. Там он случайно ... 5 10 1
Info! Золотая раздача, скачанное не засчитывается.
Торрент: Зарегистрирован [2011-11-10 22:38] · скачан: 21 раз
Статус: √ проверено
Размер: 7.76 GB
Как cкачать? Как скачать Это очень забавная история через торрент | UTorrent

28-11-2019 20:33  

Отключить всю рекламу на сайте

    Дорогой пользователь! Огромная просьба, поблагодарите релизера, оцените раздачу и оставьте свои комментарий, если Вы скачали Это очень забавная история через торрент бесплатно! Внесите свою лепту в развитие PiratBit!
    Комментировать посты могут только пользователи прошедшие не сложную регистрацию
    Показать сообщения:    

    Это очень забавная история через торрент
    Скачать бесплатно Это очень забавная история
    Это очень забавная история скачать торрент
    Это очень забавная история смотреть онлайн
    Cкачать фильм Это очень забавная история бесплатно
    Это очень забавная история скачать торрент в хорошем качестве
    Это очень забавная история смотреть онлайн бесплатно в хорошем качестве


    Вы не можете начинать темы
    Вы не можете отвечать на сообщения
    Вы не можете редактировать свои сообщения
    Вы не можете удалять свои сообщения
    Вы не можете голосовать в опросах
    Вы не можете прикреплять файлы к сообщениям
    Вы можете скачивать файлы