Ссылка на приватное зеркало нашего сайта всего за 1$. Внимание количество ограничено!!!

2 сезон

iTunes

1 сезон

1

iTunes

iTunes

iTunes

1 сезон

RePack

30

ИГРА 18+

pack

ВАЖНО

!!Акция!!

Alien_RageХит недели

RePack

MK11
pack

Забери бонус

RePack

jed

!!Акция!!

Alien_Rage

RePack

fifa19

RePack

Assassins Creed: Odyssey

RePack

NEED FOR SPEED™ PAYBACK

4 сезон

9 сезон

Бесстыжие 9 сезон

Все сериалы

все сериалы на PB.wtf

RePack

FAR CRY 5
  

Распущенная / Loose (Cisco Lamessi, Penthouse) [2011 г., Hardcore, All Sex, Couples, Widescreen, HDTV, 720p] pb.wtf

Распущенная через торрент pb.wtf

Размер: 3.28 GB | Добавлен: 8 лет 11 мес. назад | Торрент скачан:242 раза
Скачать  

12-11-2011 17:17 Распущенная Скачать торрент  

Loose / Распущенная

Год производства: 2011 г.
Страна: США
Жанр: Hardcore, All Sex, Couples, Widescreen
Продолжительность: 01:42:45
Язык: Английский
Режиссер: Cisco Lamessi
Студия: Penthouse
В ролях:
Janet Mason, Tweety Valentine, Britney Amber, Ruby Rayes, Allanah Li, Kimberly Kassanova, Johnny Castle, Pike Nelson, Patrick J Knight

Описание:
Nice Pussy...
Penthouse's hardest XXX hardcore ever! 6 XXX cum soaked scenes, featuring Penthouse model Britney Amber tackling 2 cocks!
Доп. информация: http://www.cduniverse.com/productinfo.asp?pid=8533057&style=ice

Общее
Уникальный идентификатор : 171005907124118884556968001578870531991 (0x80A68A2B12BAD16EA7C96C9E4E486797)
Полное имя : D:\torrent\shdxxx-loose.720p.mkv
Формат : Matroska
Версия формата : Version 2
Размер файла : 3,28 Гбайт
Продолжительность : 1 ч. 37 м.
Общий поток : 4790 Кбит/сек
Дата кодирования : UTC 2011-11-05 22:12:18
Программа кодирования : mkvmerge v5.0.1 ('Es ist Sommer') built on Oct 9 2011 11:55:43
Библиотека кодирования : libebml v1.2.2 + libmatroska v1.3.0
Видео
Идентификатор : 1
Формат : AVC
Формат/Информация : Advanced Video Codec
Профиль формата : High@L4.1
Параметр CABAC формата : Да
Параметр ReFrames формата : 5 кадров
Идентификатор кодека : V_MPEG4/ISO/AVC
Продолжительность : 1 ч. 37 м.
Битрейт : 4597 Кбит/сек
Ширина : 1280 пикселей
Высота : 720 пикселей
Соотношение сторон : 16:9
Частота кадров : 25,000 кадров/сек
Цветовое пространство : YUV
Субдискретизация насыщенности : 4:2:0
Битовая глубина : 8 бит
Тип развёртки : Прогрессивная
Бит/(Пиксели*Кадры) : 0.200
Размер потока : 3,08 Гбайт (94%)
Библиотека кодирования : x264 core 119 r2106 07efeb4
Настройки программы : cabac=1 / ref=5 / deblock=1:0:0 / analyse=0x3:0x133 / me=umh / subme=7 / psy=1 / psy_rd=1.00:0.00 / mixed_ref=1 / me_range=16 / chroma_me=1 / trellis=1 / 8x8dct=1 / cqm=0 / deadzone=21,11 / fast_pskip=0 / chroma_qp_offset=-2 / threads=12 / sliced_threads=0 / nr=0 / decimate=1 / interlaced=0 / bluray_compat=0 / constrained_intra=0 / bframes=3 / b_pyramid=2 / b_adapt=1 / b_bias=0 / direct=1 / weightb=1 / open_gop=0 / weightp=2 / keyint=250 / keyint_min=25 / scenecut=40 / intra_refresh=0 / rc_lookahead=40 / rc=2pass / mbtree=1 / bitrate=4597 / ratetol=1.0 / qcomp=0.60 / qpmin=0 / qpmax=51 / qpstep=4 / cplxblur=20.0 / qblur=0.5 / ip_ratio=1.40 / aq=1:1.00
Default : Да
Forced : Нет
Аудио
Идентификатор : 2
Формат : AC-3
Формат/Информация : Audio Coding 3
Расширение режима : CM (complete main)
Идентификатор кодека : A_AC3
Продолжительность : 1 ч. 37 м.
Вид битрейта : Постоянный
Битрейт : 192 Кбит/сек
Каналы : 2 канала
Расположение каналов : Front: L R
Частота : 48,0 КГц
Битовая глубина : 16 бит
Метод сжатия : С потерями
Размер потока : 135 Мбайт (4%)
Язык : English
Default : Да
Forced : Нет


Качество: 720p | Формат видео: MKV
Видео кодек: H264 | Аудио кодек: AC3
Video: MPEG4 Video (H264) 1280x720 25.00fps 4597Kbps[Video]
Audio: Dolby AC3 48000Hz stereo [Audio]
pb.wtf



pack Скачать Распущенная через торрент http://pic.kartinco.top/images/2011/uwgh3jqsub.jpg Скачать фильм Распущенная через торрент бесплантно в хорошем качестве Описание: Nice Pussy...Penthouse's hardest XXX hardcore ever! 6 XXX cum soaked scenes, featuring Penthouse model Britney Amber tackling 2 ... 4.4 10 7
Info! Золотая раздача, скачанное не засчитывается.
Торрент: Зарегистрирован [2011-11-12 17:17] · скачан: 242 раз
Статус: √ проверено
Размер: 3.28 GB
Как cкачать? Как скачать Распущенная через торрент | qTorrent

% Раздел Тема Автор DL S | L
Гонзо [ 1.74 GB ] Распущенная Проститутка Сутенера / Hooker Looser Pimp [2015 Group Lesbian Oral Inetrracial Anal WEB-DLRip Оригинальный] Pir@tya2010 Скачать
1 | 0
Порно фильмы без сюжета [ 1.23 GB ] Распущенная Проститутка Сутенера / Hooker Looser Pimp [2015 All Sex Anal Prebooks WEB-DL Оригинал] nn99nn Скачать
1 | 0
Гонзо [ 697 MB ] Распущенная / Loose [2011 All Sex Oral Anal Gonzo Big Tits Pantyhose DVDRip Оригинал] sheker187 Скачать
1 | 0

28-11-2019 20:33  

Отключить всю рекламу на сайте

    Дорогой пользователь! Огромная просьба, поблагодарите релизера, оцените раздачу и оставьте свои комментарий, если Вы скачали Распущенная через торрент бесплатно! Внесите свою лепту в развитие PiratBit!
    Комментировать посты могут только пользователи прошедшие не сложную регистрацию
    Показать сообщения:    

    Распущенная через торрент
    Скачать бесплатно Распущенная
    Распущенная скачать торрент
    Распущенная смотреть онлайн
    Cкачать фильм Распущенная бесплатно
    Распущенная скачать торрент в хорошем качестве
    Распущенная смотреть онлайн бесплатно в хорошем качестве


    Вы не можете начинать темы
    Вы не можете отвечать на сообщения
    Вы не можете редактировать свои сообщения
    Вы не можете удалять свои сообщения
    Вы не можете голосовать в опросах
    Вы не можете прикреплять файлы к сообщениям
    Вы можете скачивать файлы