Достать ножи: Стеклянная луковица

MVO

Добыча

Дубляж

Уэнсдэй

1 сезон

Тор

Дубляж

13 клиническая

1 сезон

Жестокая ночь

MVO

Одни из нас

1 сезон

Deluxe

pack

Рекомендуем

30

Пиратка

ВАЖНО

ВАЖНО

Ghostwire

Пиратка

jed

RePack

nioh2

RePack

RDR2

RePack

NEED FOR SPEED™ PAYBACK

RePack

скачать торрент

Кинопоиск HD

Острые козырьки 6 сезон

6 сезон

FAR CRY 6

RePack

скачать торрент

Лицензия

скачать торрент

MVO

1

1 сезон

скачать торрент

1 сезон

скачать торрент

Лицензия

  

Код Да Винчи + Ангелы и Демоны / The Da Vinci Code + Angels & Demons (Рон Ховард / Ron Howard) [2006-2009 г., триллер, детектив, BDRip 1080p] (Extended Cut)

Код Да Винчи + Ангелы и Демоны через торрент pb.wtf

Качают: 1 [ 0 KB/s ]
Размер: 32.84 GB | Добавлен: 11 лет назад | Торрент скачан:209 раз
| Скачать | Поддержите нас   

14-11-2011 21:02 Код Да Винчи + Ангелы и Демоны Скачать торрент  


Код Да Винчи + Ангелы и Демоны / The Da Vinci Code + Angels & Demons
[Extended Cut]

Код Да Винчи / The Da Vinci Code
  • Год выпуска: 2006
  • Страна: США
  • Жанр: триллер, детектив
  • Продолжительность: 02:54:37
  • Перевод: Профессиональный (полное дублирование)

  • Режиссер: Рон Ховард / Ron Howard

  • В ролях: Том Хэнкс, Одри Тату, Йен МакКеллен, Жан Рено, Пол Беттани, Альфред Молина, Юрген Прочноу, Жан-Ив Бертелут, Этьен Шико, Жан-Пьерр Мариэль, Мари-Франсуа Одоллент, Рита Дейвис, Francesco Carnelutti, Сет Габел, Шэйн Заза, Эндрю Кларк, Fausto Maria Sciarappa, Джо Гросси, Дэнис Подалидес, Гарри Тейлор, Клив Картер

  • Описание: Гарвардского профессора Роберта Лэнгдона подозревают в чудовищном преступлении, которого он не совершал. Лэнгдон знакомится с криптографом парижской полиции Софи Невё и вместе с ней пытается раскрыть тайну, которая может подорвать могущество католической церкви.

    Роберт и Софи должны это сделать до того, как их схватят блюстители закона или остановят противники, готовые на все ради сохранения великого религиозного секрета...


  • Качество: BDRip
  • Формат: MKV
  • Видео кодек: H264
  • Аудио кодек: AC-3
  • Видео: AVC, 1920x800 (2.400), 23.976 fps, 9 700 Kbps (0.263 bit/pixel)
  • Аудио#1: Russian: AC-3, 48.0 KHz, 6 ch, 448 Kbps, CBR |Дубляж + многоголосый закадровый|
  • Аудио#2: English: TrueHD, 48.0 KHz, 6 ch, 2871 kbps|Оригинальная аудиодорожка|
  • Субтитры: Russian, Russian (forced), English
    Отдельно:
  • Аудио#3: Russian: AC-3, 48.0 KHz, 6 ch, 640 Kbps, CBR|Многоголосый закадровый, Blu-ray CEE|
  • Аудио#4: Russian: AC-3, 48.0 KHz, 6 ch, 384 Kbps, CBR|Многоголосый закадровый, Киномания|
  • Аудио#5: Russian: AC-3, 48.0 KHz, 6 ch, 448 Kbps, CBR|Одноголосый закадровый, В.Королёв|
  • Аудио#6: Russian: AC-3, 48.0 KHz, 6 ch, 448 Kbps, CBR|Одноголосый закадровый, А.Гаврилов|
  • Аудио#7: Russian: AC-3, 48.0 KHz, 6 ch, 448 Kbps, CBR|Двуголосый закадровый, П.Гланц и И.Королёва|

Общее
Уникальный идентификатор : 244144502190599311084094087356725225608 (0xB7AC85500B81F1F68ECE59B99BA66888)
Полное имя : F:\Код Да Винчи + Ангелы и Демоны 1080p\2006 Код Да Винчи\Код Да Винчи.mkv
Формат : Matroska
Версия формата : Version 2
Размер файла : 13,8 Гбайт
Продолжительность : 2 ч. 54 м.
Режим общего битрейта : Переменный
Общий поток : 11,3 Мбит/сек
Название фильма : Piratbit.net by shuller
Дата кодирования : UTC 2011-11-14 11:11:26
Программа кодирования : mkvmerge v4.9.1 ('Ich will') сборка от Jul 11 2011 23:53:15
Библиотека кодирования : XviD4PSP 6.0 / 53.6.0

Видео
Идентификатор : 1
Формат : AVC
Формат/Информация : Advanced Video Codec
Профиль формата : [email protected]
Параметр CABAC формата : Да
Параметр ReFrames формата : 3 кадра
Режим смешивания : Header stripping
Идентификатор кодека : V_MPEG4/ISO/AVC
Продолжительность : 2 ч. 54 м.
Номинальный битрейт : 9700 Кбит/сек
Ширина : 1920 пикселей
Высота : 800 пикселей
Соотношение сторон : 2,40:1
Режим частоты кадров : Переменный
Частота кадров : 23,976 кадра/сек
Цветовое пространство : YUV
Субдискретизация насыщенности : 4:2:0
Битовая глубина : 8 бит
Тип развёртки : Прогрессивная
Бит/(Пиксели*Кадры) : 0.263
Библиотека кодирования : x264 core 116 r2044M 392e762
Настройки программы : cabac=1 / ref=4 / deblock=1:0:0 / analyse=0x3:0x133 / me=hex / subme=7 / psy=1 / psy_rd=1.00:0.20 / mixed_ref=1 / me_range=16 / chroma_me=1 / trellis=1 / 8x8dct=1 / cqm=0 / deadzone=21,11 / fast_pskip=1 / chroma_qp_offset=-3 / threads=8 / sliced_threads=0 / nr=0 / decimate=1 / interlaced=0 / bluray_compat=0 / constrained_intra=0 / bframes=3 / b_pyramid=1 / b_adapt=2 / b_bias=0 / direct=3 / weightb=1 / open_gop=0 / weightp=2 / keyint=230 / keyint_min=23 / scenecut=40 / intra_refresh=0 / rc_lookahead=40 / rc=abr / mbtree=1 / bitrate=9700 / ratetol=1.0 / qcomp=0.60 / qpmin=10 / qpmax=51 / qpstep=4 / ip_ratio=1.40 / aq=1:1.00

Аудио #1
Идентификатор : 2
Формат : AC-3
Формат/Информация : Audio Coding 3
Расширение режима : CM (complete main)
Режим смешивания : Header stripping
Идентификатор кодека : A_AC3
Продолжительность : 2 ч. 54 м.
Вид битрейта : Постоянный
Битрейт : 448 Кбит/сек
Каналы : 6 каналов
Расположение каналов : Front: L C R, Side: L R, LFE
Частота : 48,0 КГц
Битовая глубина : 16 бит
Метод сжатия : С потерями
Размер потока : 560 Мбайт (4%)
Заголовок : Дубляж
Язык : Russian

Аудио #2
Идентификатор : 3
Формат : TrueHD
Идентификатор кодека : A_TRUEHD
Продолжительность : 2 ч. 54 м.
Вид битрейта : Переменный
Максимальный битрейт : 2871 Кбит/сек
Каналы : 6 каналов
Расположение каналов : Front: L C R, Side: L R, LFE
Частота : 48,0 КГц
Метод сжатия : Без потерь
Заголовок : Original
Язык : English

Текст #1
Идентификатор : 4
Формат : PGS
Режим смешивания : zlib
Идентификатор кодека : S_HDMV/PGS
Идентификатор кодека/Информация : The same subtitle format used on BDs/HD-DVDs
Заголовок : Rus
Язык : Russian

Текст #2
Идентификатор : 5
Формат : PGS
Режим смешивания : zlib
Идентификатор кодека : S_HDMV/PGS
Идентификатор кодека/Информация : The same subtitle format used on BDs/HD-DVDs
Заголовок : Rus(Forced)
Язык : Russian

Текст #3
Идентификатор : 6
Формат : PGS
Режим смешивания : zlib
Идентификатор кодека : S_HDMV/PGS
Идентификатор кодека/Информация : The same subtitle format used on BDs/HD-DVDs
Заголовок : Eng
Язык : English

Меню
00:00:00.000 : :Chapter 01
00:10:09.232 : :Chapter 02
00:17:27.463 : :Chapter 03
00:31:01.192 : :Chapter 04
00:38:14.417 : :Chapter 05
00:52:07.833 : :Chapter 06
01:06:43.040 : :Chapter 07
01:18:50.392 : :Chapter 08
01:27:39.003 : :Chapter 09
01:34:35.419 : :Chapter 10
01:49:19.302 : :Chapter 11
02:01:19.355 : :Chapter 12
02:08:03.842 : :Chapter 13
02:18:17.664 : :Chapter 14
02:29:55.861 : :Chapter 15
02:37:31.150 : :Chapter 16
скриншот  скриншот  скриншот  скриншот  
скриншот  скриншот  скриншот  скриншот  

Ангелы и Демоны / Angels & Demons
  • Год выпуска: 2009
  • Страна: США
  • Жанр: триллер, детектив
  • Продолжительность: 02:26:15
  • Перевод: Профессиональный (полное дублирование)

  • Режиссер: Рон Ховард / Ron Howard

  • В ролях: Том Хэнкс, Ивэн МакГрегор, Аилит Зорор, Стеллан Скарсгард, Пьерфранческо Фавино, Николай Ли Каас, Армин Мюллер-Шталь, Туре Линдхардт, David Pasquesi, Cosimo Fusco, Виктор Альфьери, Franklin Amobi, Курт Лоуэнс, Боб Йоркис, Марко Фьорини, Кармен Аргензиано, Ховард Манго, Рэнс Ховард, Стив Фрэнкен, Джино Конфорти, Эля Баскин

  • Описание: Весь мир замер в ожидании свершения древнейшей церемонии - выбора главы католической церкви Папы Римского, но в судьбоносное решение вмешивается некая могущественна сила - заклятый враг католической церкви - таинственный орден Иллюминатов! Кандидаты на священный пост подвергаются свирепой ритуальной расправе один за другим. Перед лицом смертельной угрозы Ватикан вынужден обратится за помощью к профессору - эксперту по религиозной символике Роберту Лэнгдону, который находит доказательства возрождения могущественного тайного братства, жестоко истребляемого в Средние века.

    Вместе со своей напарницей - талантливым ученым Витторией Ветра - Лэнгдон начинает собственное расследование, увлекающие их в лабиринты замурованных склепов, тайных подземелий и заброшенных храмов - в самое сокровенное хранилище в мире. Мистической тропой символов ученые продвигаются к невероятной истине, которая дает Ватикану единственную надежду на спасение. Но в неистовом желании расквитаться и показать свое превосходство иллюминаты не остановятся ни перед чем! Настала пора для человечества узнать правду!


  • Качество: BDRip
  • Формат: MKV
  • Видео кодек: H264
  • Аудио кодек: AC-3
  • Видео: AVC, 1920x800 (2.400), 23.976 fps, 9 700 Kbps (0.263 bit/pixel)
  • Аудио#1: Russian: AC-3, 48.0 KHz, 6 ch, 640 Kbps, CBR |Дубляж Blu-ray CEE + многоголосый закадровый|
  • Аудио#2: English: DTS MA, 48.0 KHz, 6 ch, 1561 kbps,VBR|Оригинальная аудиодорожка|
  • Субтитры: Russian, Russian (forced), Ukrainian (forced), English
    Отдельно:
  • Аудио#3: Russian: AC-3, 48.0 KHz, 6 ch, 448 Kbps, CBR|Одноголосый закадровый, В.Королёв|
  • Аудио#4: Russian: AC-3, 48.0 KHz, 6 ch, 448 Kbps, CBR|Одноголосый закадровый, А.Гаврилов|
  • Аудио#5: Russian: AC-3, 48.0 KHz, 6 ch, 448 Kbps, CBR|Одноголосый закадровый, Ю.Живов|
  • Аудио#6: Ukrainian: AC-3, 48.0 KHz, 6 ch, 640 Kbps, CBR|Дубляж, Blu-ray CEE|

Общее
Уникальный идентификатор : 240757153669223854466825372531008725070 (0xB5202422E938009DA0D7BBC8CAEBE04E)
Полное имя : F:\Мои рипы\Ангелы и демоны.mkv
Формат : Matroska
Версия формата : Version 2
Размер файла : 14,1 Гбайт
Продолжительность : 2 ч. 26 м.
Режим общего битрейта : Переменный
Общий поток : 13,8 Мбит/сек
Название фильма : Piratbit.ne by shuller
Дата кодирования : UTC 2011-11-14 20:12:16
Программа кодирования : mkvmerge v4.9.1 ('Ich will') сборка от Jul 11 2011 23:53:15
Библиотека кодирования : XviD4PSP 6.0 / 53.6.0

Видео
Идентификатор : 1
Формат : AVC
Формат/Информация : Advanced Video Codec
Профиль формата : [email protected]
Параметр CABAC формата : Да
Параметр ReFrames формата : 3 кадра
Режим смешивания : Header stripping
Идентификатор кодека : V_MPEG4/ISO/AVC
Продолжительность : 2 ч. 26 м.
Битрейт : 11,3 Мбит/сек
Номинальный битрейт : 9700 Кбит/сек
Ширина : 1920 пикселей
Высота : 800 пикселей
Соотношение сторон : 2,40:1
Режим частоты кадров : Переменный
Частота кадров : 23,976 кадра/сек
Цветовое пространство : YUV
Субдискретизация насыщенности : 4:2:0
Битовая глубина : 8 бит
Тип развёртки : Прогрессивная
Бит/(Пиксели*Кадры) : 0.308
Размер потока : 11,6 Гбайт (82%)
Библиотека кодирования : x264 core 116 r2044M 392e762
Настройки программы : cabac=1 / ref=4 / deblock=1:0:0 / analyse=0x3:0x133 / me=hex / subme=7 / psy=1 / psy_rd=1.00:0.20 / mixed_ref=1 / me_range=16 / chroma_me=1 / trellis=1 / 8x8dct=1 / cqm=0 / deadzone=21,11 / fast_pskip=1 / chroma_qp_offset=-3 / threads=32 / sliced_threads=0 / nr=0 / decimate=1 / interlaced=0 / bluray_compat=0 / constrained_intra=0 / bframes=3 / b_pyramid=1 / b_adapt=2 / b_bias=0 / direct=3 / weightb=1 / open_gop=0 / weightp=2 / keyint=230 / keyint_min=23 / scenecut=40 / intra_refresh=0 / rc_lookahead=40 / rc=abr / mbtree=1 / bitrate=9700 / ratetol=1.0 / qcomp=0.60 / qpmin=10 / qpmax=51 / qpstep=4 / ip_ratio=1.40 / aq=1:1.00

Аудио #1
Идентификатор : 2
Формат : AC-3
Формат/Информация : Audio Coding 3
Расширение режима : CM (complete main)
Режим смешивания : Header stripping
Идентификатор кодека : A_AC3
Продолжительность : 2 ч. 26 м.
Вид битрейта : Постоянный
Битрейт : 640 Кбит/сек
Каналы : 6 каналов
Расположение каналов : Front: L C R, Side: L R, LFE
Частота : 48,0 КГц
Битовая глубина : 16 бит
Метод сжатия : С потерями
Размер потока : 670 Мбайт (5%)
Язык : Russian

Аудио #2
Идентификатор : 3
Формат : DTS
Формат/Информация : Digital Theater Systems
Профиль формата : MA / Core
Режим смешивания : Header stripping
Идентификатор кодека : A_DTS
Продолжительность : 2 ч. 26 м.
Вид битрейта : Переменный
Битрейт : 1561 Кбит/сек / 1510 Кбит/сек
Каналы : 6 каналов
Расположение каналов : Front: L C R, Side: L R, LFE
Частота : 48,0 КГц
Битовая глубина : 24 бит
Метод сжатия : Без потерь / Lossy
Заголовок : Original
Язык : English

Текст #1
Идентификатор : 4
Формат : PGS
Режим смешивания : zlib
Идентификатор кодека : S_HDMV/PGS
Идентификатор кодека/Информация : The same subtitle format used on BDs/HD-DVDs
Заголовок : Русские[полные]
Язык : Russian

Текст #2
Идентификатор : 5
Формат : PGS
Режим смешивания : zlib
Идентификатор кодека : S_HDMV/PGS
Идентификатор кодека/Информация : The same subtitle format used on BDs/HD-DVDs
Заголовок : Русские[forced]
Язык : Russian

Текст #3
Идентификатор : 6
Формат : PGS
Режим смешивания : zlib
Идентификатор кодека : S_HDMV/PGS
Идентификатор кодека/Информация : The same subtitle format used on BDs/HD-DVDs
Заголовок : Украинские
Язык : Ukrainian

Текст #4
Идентификатор : 7
Формат : PGS
Режим смешивания : zlib
Идентификатор кодека : S_HDMV/PGS
Идентификатор кодека/Информация : The same subtitle format used on BDs/HD-DVDs
Заголовок : English
Язык : English

Текст #5
Идентификатор : 8
Формат : PGS
Режим смешивания : zlib
Идентификатор кодека : S_HDMV/PGS
Идентификатор кодека/Информация : The same subtitle format used on BDs/HD-DVDs
Заголовок : English
Язык : English

Меню
00:00:00.000 : :Chapter 01
00:09:30.861 : :Chapter 02
00:19:08.355 : :Chapter 03
00:27:16.259 : :Chapter 04
00:34:22.810 : :Chapter 05
00:46:14.605 : :Chapter 06
00:55:16.855 : :Chapter 07
01:04:36.205 : :Chapter 08
01:14:51.903 : :Chapter 09
01:22:50.965 : :Chapter 10
01:32:53.692 : :Chapter 11
01:44:11.661 : :Chapter 12
01:55:16.826 : :Chapter 13
02:05:37.738 : :Chapter 14
02:10:38.580 : :Chapter 15
02:15:06.431 : :Chapter 16
скриншот  скриншот  скриншот  скриншот  
скриншот  скриншот  скриншот  скриншот  


  • Сохранены оригинальные чаптеры как на Blu-ray.
  • Все расширенные моменты переведены в полном объёме.
  • Расширенные моменты в дубляже озвучены многоголосым закадровым переводом, не английская речь (итальянская, испанская, швейцарская) - Владимиром Королёвым.

--> <-- :ad: --> <--
Произошла путаница в названии 2-х внешних аудио-дорожек (Код Да Винчи): "Двуголосый закадровый, П.Гланц и И.Королёва", на самом деле, "Одноголосый закадровый, В.Королёв", а "Одноголосый закадровый, В.Королёв", на самом деле, "Двуголосый закадровый, П.Гланц и И.Королёва"



Скачать Код Да Винчи + Ангелы и Демоны через торрент http://i29.fastpic.ru/big/2011/1109/63/e7a276c8a1e9e1d1c24582b98e431863.jpg Скачать, смотреть онлайн Код Да Винчи + Ангелы и Демоны бесплантно в хорошем качестве Описание: Гарвардского профессора Роберта Лэнгдона подозревают в чудовищном преступлении, которого он не совершал. Лэнгдон знакомится с ... 10 10 11
Info! Золотая раздача, скачанное не засчитывается.
Торрент: Зарегистрирован [2011-11-14 21:02] · скачан: 209 раз
Статус: √ проверено
Размер: 32.84 GB
Как cкачать? Как скачать Код Да Винчи + Ангелы и Демоны через торрент | UTorrent

% Раздел Тема Автор DL S | L
Сборники (HD Video) [ 17.81 GB ] Код Да Винчи + Ангелы и Демоны / The Da Vinci Code + Angels & Demons | | 720p diletant Скачать
1 | 0
Сборники (HD Video) [ 90.07 GB ] Код Да Винчи + Ангелы и Демоны / The Da Vinci Code + Angels & Demons | | Код Да Винчи + Ангелы и Демоны / The Da Vinci Code + Angels & Demons (Рон Ховард / Ron Howard shuller Скачать
1 | 0

28-11-2019 20:33  


Отключить вcю реклaмy на сайте, в т.ч. и в плеере онлайн просмотра!

05-04-2013 19:01 Код Да Винчи + Ангелы и Демоны Скачать торрент  

Спасибо забираю !
Очень крутые фильмы !



    Дорогой пользователь! Огромная просьба, поблагодарите релизера, оцените раздачу и оставьте свои комментарий, если Вы скачали Код Да Винчи + Ангелы и Демоны через торрент бесплатно!!
    Комментировать посты могут только пользователи прошедшие не сложную регистрацию
    Показать сообщения:    


    Код Да Винчи + Ангелы и Демоны через торрент
    Скачать бесплатно Код Да Винчи + Ангелы и Демоны
    Код Да Винчи + Ангелы и Демоны скачать торрент
    Код Да Винчи + Ангелы и Демоны смотреть онлайн
    Cкачать фильм Код Да Винчи + Ангелы и Демоны бесплатно
    Код Да Винчи + Ангелы и Демоны скачать торрент в хорошем качестве
    Код Да Винчи + Ангелы и Демоны смотреть онлайн бесплатно в хорошем качестве
    Вы не можете начинать темы
    Вы не можете отвечать на сообщения
    Вы не можете редактировать свои сообщения
    Вы не можете удалять свои сообщения
    Вы не можете голосовать в опросах
    Вы не можете прикреплять файлы к сообщениям
    Вы можете скачивать файлы
    Код Да Винчи + Ангелы и Демоны / The Da Vinci Code + Angels & Demons [2006-2009 г., триллер, детектив, BDRip 1080p] смотреть онлайн, скачать торрент picoco.icu