1 сезон

3 сезон

iTunes

1

Line

MVO

iTunes

13

1 сезон

RePack

30

Deluxe

pack

Лицензия

ВАЖНО

ИГРА 18+

pack

RePack

MK11

RePack

jed

RePack

fifa19

RePack

RDR2

RePack

NEED FOR SPEED™ PAYBACK

4 сезон

9 сезон

Бесстыжие 9 сезон

Все сериалы

все сериалы на PB.wtf

RePack

FAR CRY 5

Anonymous, добрый вечер, мы катастрофически не успеваем собрать деньги на оплату серверов, помогите нам пожалуйста 5,10,15р., для нас важна любая помощь . В качестве благодарности мы отключим Вам всю рекламу на сайте (укажите свой ник в строку Ваше имя)!

×
  
Magnet ссылка

Человек, который изменил всё / Moneyball (Беннетт Миллер / Bennett Miller) [2011, драма, биография, спорт, DVD9] R5 «Columbia/Sonpb.wtf

Человек, который изменил всё через торрент pb.wtf

Размер: 6.89 GB | Добавлен: 9 лет 8 мес. назад | Торрент скачан:78 раз
Скачать  

14-11-2011 21:36 Человек, который изменил всё Скачать торрент  


Человек, который изменил всё / Moneyball
«А что в жизни сделал ты?»
Страна: США
Студия: Film Rites, Michael De Luca Productions, Scott Rudin Productions, Specialty Films (II)
Жанр: драма, биография, спорт
Год выпуска: 2011
Мировая премьера: 9 сентября 2011
Российская премьера: 20 октября 2011, «WDSSPR»
Дата выхода DVD: 22 ноября 2011, «Columbia/Sony»
Дата выхода Blu-Ray: 17 января 2012, «Columbia/Sony»
Продолжительность: 02:07:45
Перевод: Профессиональный (дублированный) [Лицензия]
Cубтитры: русские
Режиссер: Беннетт Миллер / Bennett Miller
В ролях: Брэд Питт, Джона Хилл, Филип Сеймур Хоффман, Робин Райт, Крис Прэтт, Стефен Бишоп, Брент Дженнингс, Кен Медлок, Тэмми Бланчард, Джек МакГ
Описание: Фильм по книге Майкла M. Льюиса, изданной в 2003 году, об Оклендской бейсбольной команде и ее генеральном менеджере, Билли Бине. Его цель — создать конкурентоспособную бейсбольную команду, несмотря на финансовые трудности.
Бонусы: нет

Качество: DVD9 R5
Формат: DVD-Video
Видео кодек: MPEG2
Аудио кодек: AC3
Видео: PAL 16:9 (720x576(0.658)) MPEG Video, 25,000 кадр/сек, 6822 Кбит/сек
Аудио: Russian (Dolby AC3, 6 ch) 448 Кбит/сек, 48,0 КГц



Title: Рабочий
Size: 6.89 Gb ( 7 222 662 KBytes ) - DVD-9
Enabled regions: 1, 2, 3, 4, 5, 6, 7, 8

VTS_01 :
Play Length: 02:07:45
Video: PAL 16:9 (720x576) VBR, Auto Letterboxed
Audio:
Russian (Dolby AC3, 6 ch)
Subtitles:
Russian

Menu Video:
PAL 16:9 (720x576) VBR
Auto Letterboxed
Menu Audio:
Not specified (Dolby AC3, 6 ch)
Menu Subtitles:
Not specified
Menu Russian Language Unit :
Root Menu
Chapter (PTT) Menu
Общее
Полное имя : G:\Новинки 2011\Chelovek.kotoryj.izmenil.vsjo.2011.DVD9\VIDEO_TS\VTS_01_1.VOB
Формат : MPEG-PS
Размер файла : 1024 Мбайт
Продолжительность : 19 м.
Общий поток : 7417 Кбит/сек

Видео
Идентификатор : 224 (0xE0)
Формат : MPEG Video
Версия формата : Version 2
Профиль формата : Main@Main
Параметр BVOP формата : Да
Параметр матрицы формата : Выборочная
Продолжительность : 19 м.
Вид битрейта : Переменный
Битрейт : 6822 Кбит/сек
Максимальный битрейт : 9000 Кбит/сек
Ширина : 720 пикселей
Высота : 576 пикселей
Соотношение сторон : 16:9
Частота кадров : 25,000 кадров/сек
Стандарт вещания : PAL
Цветовое пространство : YUV
Субдискретизация насыщенности : 4:2:0
Битовая глубина : 8 бит
Тип развёртки : Чересстрочная
Порядок развёртки : Верхнее поле первое
Метод сжатия : С потерями
Бит/(Пиксели*Кадры) : 0.658
Размер потока : 942 Мбайт (92%)

Аудио
Идентификатор : 189 (0xBD)-128 (0x80)
Формат : AC-3
Формат/Информация : Audio Coding 3
Расширение режима : CM (complete main)
Режим смешивания : DVD-Video
Продолжительность : 19 м.
Вид битрейта : Постоянный
Битрейт : 448 Кбит/сек
Каналы : 6 каналов
Расположение каналов : Front: L C R, Side: L R, LFE
Частота : 48,0 КГц
Битовая глубина : 16 бит
Метод сжатия : С потерями
Размер потока : 61,8 Мбайт (6%)










pb.wtf



Скачать Человек, который изменил всё через торрент http://i3.imageban.ru/out/2011/11/15/f9fb408a07d6e8c8b40bb0b2f5b479e9.jpg Скачать фильм Человек, который изменил всё через торрент бесплантно в хорошем качестве Описание: Фильм по книге Майкла M. Льюиса, изданной в 2003 году, об Оклендской бейсбольной команде и ее генеральном менеджере, Билли Бине. ... 5 10 8
Info! Золотая раздача, скачанное не засчитывается.
Торрент: Зарегистрирован [2011-11-14 21:36] · скачан: 78 раз
Статус: √ проверено
Размер: 6.89 GB
Как cкачать? Как скачать Человек, который изменил всё через торрент | UTorrent

28-11-2019 20:33  

Отключить всю рекламу на сайте

14-11-2011 22:39 Человек, который изменил всё Скачать торрент  

Говорят, клёвый фильм.pb.wtf



    Дорогой пользователь! Огромная просьба, поблагодарите релизера, оцените раздачу и оставьте свои комментарий, если Вы скачали Человек, который изменил всё через торрент бесплатно! Внесите свою лепту в развитие PiratBit!
    Комментировать посты могут только пользователи прошедшие не сложную регистрацию
    Показать сообщения:    

    Человек, который изменил всё через торрент
    Скачать бесплатно Человек, который изменил всё
    Человек, который изменил всё скачать торрент
    Человек, который изменил всё смотреть онлайн
    Cкачать фильм Человек, который изменил всё бесплатно
    Человек, который изменил всё скачать торрент в хорошем качестве
    Человек, который изменил всё смотреть онлайн бесплатно в хорошем качестве


    Вы не можете начинать темы
    Вы не можете отвечать на сообщения
    Вы не можете редактировать свои сообщения
    Вы не можете удалять свои сообщения
    Вы не можете голосовать в опросах
    Вы не можете прикреплять файлы к сообщениям
    Вы можете скачивать файлы