Ссылка на приватное зеркало нашего сайта всего за 1$. Внимание количество ограничено!!!

2 сезон

iTunes

1 сезон

1

2 сезон

2 сезон

iTunes

1 сезон

RePack

30

Ultimate

ВАЖНО

ИГРА 18+

pack

RePack

MK11
pack

Забери бонус

RePack

jed

!!Акция!!

Alien_Rage

RePack

fifa19

RePack

Assassins Creed: Odyssey

RePack

NEED FOR SPEED™ PAYBACK

4 сезон

9 сезон

Бесстыжие 9 сезон

Все сериалы

все сериалы на PB.wtf

RePack

FAR CRY 5
  

(Rock, Hard Rock, Classic Rock) Queen - Singles Collection Vol I-IV, 52 CD, FLAC (image + .cue), lossless pb.wtf

через торрент pb.wtf

Размер: 3 GB | Добавлен: 8 лет 10 мес. назад | Торрент скачан:25 раз
Скачать  

15-11-2011 06:23 Скачать торрент  

[font="Georgia"]Queen - Singles Collection Vol I-IV, 52 CD

Страна: England / Жанр: Rock, Hard Rock, Classic Rock / Год выпуска: 2008-2010 / Формат: FLAC (image + .cue) / Битрейт аудио: lossless / Продолжительность: 07:10:27
Общая продолжительность: 01:39:00
Продолжительность: 07:10

Треклист:

[font="Tahoma"]01. Keep Yourself Alive (3:49)
[font="Tahoma"]02. Son And Daughter (3:21)

Код:

Exact Audio Copy V0.99 prebeta 5 from 4. May 2009

EAC extraction logfile from 9. July 2010, 8:10

Queen - Singles Collection 1 / Keep Yourself Alive

Used drive  : Optiarc DVD RW AD-7203S   Adapter: 3  ID: 1

Read mode               : Secure
Utilize accurate stream : Yes
Defeat audio cache      : Yes
Make use of C2 pointers : No

Read offset correction                      : 48
Overread into Lead-In and Lead-Out          : No
Fill up missing offset samples with silence : Yes
Delete leading and trailing silent blocks   : No
Null samples used in CRC calculations       : Yes
Used interface                              : Installed external ASPI interface

Used output format : Internal WAV Routines
Sample format      : 44.100 Hz; 16 Bit; Stereo

TOC of the extracted CD

     Track |   Start  |  Length  | Start sector | End sector
    ---------------------------------------------------------
        1  |  0:00.00 |  3:49.28 |         0    |    17202
        2  |  3:49.28 |  3:20.45 |     17203    |    32247

Range status and errors

Selected range

     Filename E:\Audio in lossless\$ QUEEN $\Queen © 2008 - Singles Collection 1 (13CD's)\01-1973 ''Keep Yourself Alive''\Queen - Singles Collection 1 - Keep Yourself Alive.wav

     Peak level 99.1 %
     Range quality 100.0 %
     Copy CRC 3890FB36
     Copy OK

No errors occurred

End of status report

Продолжительность: 07:21

Треклист:

[font="Tahoma"]01. Seven Seas Of Rhye (2:51)
[font="Tahoma"]02. See What A Fool I've Been (4:29)

Код:

Exact Audio Copy V0.99 prebeta 5 from 4. May 2009

EAC extraction logfile from 9. July 2010, 8:43

Queen - Singles Collection 1 / Seven Seas Of Rhye

Used drive  : Optiarc DVD RW AD-7203S   Adapter: 3  ID: 1

Read mode               : Secure
Utilize accurate stream : Yes
Defeat audio cache      : Yes
Make use of C2 pointers : No

Read offset correction                      : 48
Overread into Lead-In and Lead-Out          : No
Fill up missing offset samples with silence : Yes
Delete leading and trailing silent blocks   : No
Null samples used in CRC calculations       : Yes
Used interface                              : Installed external ASPI interface

Used output format : Internal WAV Routines
Sample format      : 44.100 Hz; 16 Bit; Stereo

TOC of the extracted CD

     Track |   Start  |  Length  | Start sector | End sector
    ---------------------------------------------------------
        1  |  0:00.00 |  2:51.19 |         0    |    12843
        2  |  2:51.19 |  4:29.19 |     12844    |    33037

Range status and errors

Selected range

     Filename E:\Audio in lossless\$ QUEEN $\Queen © 2008 - Singles Collection 1 (13CD's)\02-1974 ''Seven Seas Of Rhye''\Queen - Singles Collection 1 - Seven Seas Of Rhye.wav

     Peak level 99.1 %
     Range quality 100.0 %
     Copy CRC 9CFA6AF1
     Copy OK

No errors occurred

End of status report

Продолжительность: 06:21

Треклист:

[font="Tahoma"]01. Killer Queen (3:03)
[font="Tahoma"]02. Flick Of The Wrist (3:19)

Код:

Exact Audio Copy V0.99 prebeta 5 from 4. May 2009

EAC extraction logfile from 9. July 2010, 9:08

Queen - Singles Collection 1 / Killer Queen

Used drive  : Optiarc DVD RW AD-7203S   Adapter: 3  ID: 1

Read mode               : Secure
Utilize accurate stream : Yes
Defeat audio cache      : Yes
Make use of C2 pointers : No

Read offset correction                      : 48
Overread into Lead-In and Lead-Out          : No
Fill up missing offset samples with silence : Yes
Delete leading and trailing silent blocks   : No
Null samples used in CRC calculations       : Yes
Used interface                              : Installed external ASPI interface

Used output format : Internal WAV Routines
Sample format      : 44.100 Hz; 16 Bit; Stereo

TOC of the extracted CD

     Track |   Start  |  Length  | Start sector | End sector
    ---------------------------------------------------------
        1  |  0:00.00 |  3:02.43 |         0    |    13692
        2  |  3:02.43 |  3:18.51 |     13693    |    28593

Range status and errors

Selected range

     Filename E:\Audio in lossless\$ QUEEN $\Queen © 2008 - Singles Collection 1 (13CD's)\03-1974 ''Killer Queen''\Queen - Singles Collection 1 - Killer Queen.wav

     Peak level 99.1 %
     Range quality 100.0 %
     Copy CRC FB6CB669
     Copy OK

No errors occurred

End of status report

Продолжительность: 05:56

Треклист:

[font="Tahoma"]01. Now I'm Here (4:16)
[font="Tahoma"]02. Lily Of The Valley (1:40)

Код:

Exact Audio Copy V0.99 prebeta 5 from 4. May 2009

EAC extraction logfile from 9. July 2010, 9:35

Queen - Singles Collection 1 / Now I'm Here

Used drive  : Optiarc DVD RW AD-7203S   Adapter: 3  ID: 1

Read mode               : Secure
Utilize accurate stream : Yes
Defeat audio cache      : Yes
Make use of C2 pointers : No

Read offset correction                      : 48
Overread into Lead-In and Lead-Out          : No
Fill up missing offset samples with silence : Yes
Delete leading and trailing silent blocks   : No
Null samples used in CRC calculations       : Yes
Used interface                              : Installed external ASPI interface

Used output format : Internal WAV Routines
Sample format      : 44.100 Hz; 16 Bit; Stereo

TOC of the extracted CD

     Track |   Start  |  Length  | Start sector | End sector
    ---------------------------------------------------------
        1  |  0:00.00 |  4:15.57 |         0    |    19181
        2  |  4:15.57 |  1:40.23 |     19182    |    26704

Range status and errors

Selected range

     Filename E:\Audio in lossless\$ QUEEN $\Queen © 2008 - Singles Collection 1 (13CD's)\04-1975 ''Now I'm Here''\Queen - Singles Collection 1 - Now I'm Here.wav

     Peak level 89.4 %
     Range quality 100.0 %
     Copy CRC 71E1C162
     Copy OK

No errors occurred

End of status report

Продолжительность: 06:23

Треклист:

[font="Tahoma"]01. You're My Best Friend (2:52)
[font="Tahoma"]02. 39 (3:31)

Код:

Exact Audio Copy V0.99 prebeta 5 from 4. May 2009

EAC extraction logfile from 9. July 2010, 9:59

Queen - Singles Collection 1 / You're My Best Friend

Used drive  : Optiarc DVD RW AD-7203S   Adapter: 3  ID: 1

Read mode               : Secure
Utilize accurate stream : Yes
Defeat audio cache      : Yes
Make use of C2 pointers : No

Read offset correction                      : 48
Overread into Lead-In and Lead-Out          : No
Fill up missing offset samples with silence : Yes
Delete leading and trailing silent blocks   : No
Null samples used in CRC calculations       : Yes
Used interface                              : Installed external ASPI interface

Used output format : Internal WAV Routines
Sample format      : 44.100 Hz; 16 Bit; Stereo

TOC of the extracted CD

     Track |   Start  |  Length  | Start sector | End sector
    ---------------------------------------------------------
        1  |  0:00.00 |  2:52.20 |         0    |    12919
        2  |  2:52.20 |  3:30.64 |     12920    |    28733

Range status and errors

Selected range

     Filename E:\Audio in lossless\$ QUEEN $\Queen © 2008 - Singles Collection 1 (13CD's)\05-1976 ''You're My Best Friend''\Queen - Singles Collection 1 - You're My Best Friend.wav

     Peak level 93.7 %
     Range quality 100.0 %
     Copy CRC 9B7A8270
     Copy OK

No errors occurred

End of status report

Продолжительность: 10:00

Треклист:

[font="Tahoma"]01. Somebody To Love (4:59)
[font="Tahoma"]02. B/W White Man (5:01)

Код:

Exact Audio Copy V0.99 prebeta 5 from 4. May 2009

EAC extraction logfile from 9. July 2010, 10:24

Queen - Singles Collection 1 / Somebody To Love

Used drive  : Optiarc DVD RW AD-7203S   Adapter: 3  ID: 1

Read mode               : Secure
Utilize accurate stream : Yes
Defeat audio cache      : Yes
Make use of C2 pointers : No

Read offset correction                      : 48
Overread into Lead-In and Lead-Out          : No
Fill up missing offset samples with silence : Yes
Delete leading and trailing silent blocks   : No
Null samples used in CRC calculations       : Yes
Used interface                              : Installed external ASPI interface

Used output format : Internal WAV Routines
Sample format      : 44.100 Hz; 16 Bit; Stereo

TOC of the extracted CD

     Track |   Start  |  Length  | Start sector | End sector
    ---------------------------------------------------------
        1  |  0:00.00 |  4:58.65 |         0    |    22414
        2  |  4:58.65 |  5:00.63 |     22415    |    44977

Range status and errors

Selected range

     Filename E:\Audio in lossless\$ QUEEN $\Queen © 2008 - Singles Collection 1 (13CD's)\06-1976 ''Somebody To Love''\Queen - Singles Collection 1 - Somebody To Love.wav

     Peak level 88.0 %
     Range quality 100.0 %
     Copy CRC FA4994FB
     Copy OK

No errors occurred

End of status report

Продолжительность: 07:23

Треклист:

[font="Tahoma"]01. Tie Your Mother Down (3:47)
[font="Tahoma"]02. You And I (3:26)

Код:

Exact Audio Copy V0.99 prebeta 5 from 4. May 2009

EAC extraction logfile from 9. July 2010, 10:49

Queen - Singles Collection 1 / Tie Your Mother Down

Used drive  : Optiarc DVD RW AD-7203S   Adapter: 3  ID: 1

Read mode               : Secure
Utilize accurate stream : Yes
Defeat audio cache      : Yes
Make use of C2 pointers : No

Read offset correction                      : 48
Overread into Lead-In and Lead-Out          : No
Fill up missing offset samples with silence : Yes
Delete leading and trailing silent blocks   : No
Null samples used in CRC calculations       : Yes
Used interface                              : Installed external ASPI interface

Used output format : Internal WAV Routines
Sample format      : 44.100 Hz; 16 Bit; Stereo

TOC of the extracted CD

     Track |   Start  |  Length  | Start sector | End sector
    ---------------------------------------------------------
        1  |  0:00.00 |  3:47.34 |         0    |    17058
        2  |  3:47.34 |  3:25.43 |     17059    |    32476

Range status and errors

Selected range

     Filename E:\Audio in lossless\$ QUEEN $\Queen © 2008 - Singles Collection 1 (13CD's)\07-1977 ''Tie Your Mother Down''\Queen - Singles Collection 1 - Tie Your Mother Down.wav

     Peak level 84.0 %
     Range quality 100.0 %
     Copy CRC AC4D63E3
     Copy OK

No errors occurred

End of status report

Продолжительность: 14:23

Треклист:

[font="Tahoma"]01. Good Old Fashioned Loverboy (2:58)
[font="Tahoma"]02. Death On Two Legs (Dedicated To...) (3:44)
[font="Tahoma"]03. Tenement Funster (2:56)
[font="Tahoma"]04. White Queen (As It Began) (4:35)

Код:

Exact Audio Copy V0.99 prebeta 5 from 4. May 2009

EAC extraction logfile from 9. July 2010, 11:15

Queen - Singles Collection 1 / Queen's First E.P.

Used drive  : Optiarc DVD RW AD-7203S   Adapter: 3  ID: 1

Read mode               : Secure
Utilize accurate stream : Yes
Defeat audio cache      : Yes
Make use of C2 pointers : No

Read offset correction                      : 48
Overread into Lead-In and Lead-Out          : No
Fill up missing offset samples with silence : Yes
Delete leading and trailing silent blocks   : No
Null samples used in CRC calculations       : Yes
Used interface                              : Installed external ASPI interface

Used output format : Internal WAV Routines
Sample format      : 44.100 Hz; 16 Bit; Stereo

TOC of the extracted CD

     Track |   Start  |  Length  | Start sector | End sector
    ---------------------------------------------------------
        1  |  0:00.00 |  2:58.01 |         0    |    13350
        2  |  2:58.01 |  3:43.59 |     13351    |    30134
        3  |  6:41.60 |  2:56.21 |     30135    |    43355
        4  |  9:38.06 |  4:34.51 |     43356    |    63956

Range status and errors

Selected range

     Filename E:\Audio in lossless\$ QUEEN $\Queen © 2008 - Singles Collection 1 (13CD's)\08-1977 ''Queen's First E.P.''\Queen - Singles Collection 1 - Queen's First E.P..wav

     Peak level 94.8 %
     Range quality 100.0 %
     Copy CRC F4E207F9
     Copy OK

No errors occurred

End of status report

Продолжительность: 05:06

Треклист:

[font="Tahoma"]01. We Are The Champions (3:04)
[font="Tahoma"]02. We Will Rock You (2:02)

Код:

Exact Audio Copy V0.99 prebeta 5 from 4. May 2009

EAC extraction logfile from 9. July 2010, 11:33

Queen - Singles Collection 1 / We Are The Champions

Used drive  : Optiarc DVD RW AD-7203S   Adapter: 3  ID: 1

Read mode               : Secure
Utilize accurate stream : Yes
Defeat audio cache      : Yes
Make use of C2 pointers : No

Read offset correction                      : 48
Overread into Lead-In and Lead-Out          : No
Fill up missing offset samples with silence : Yes
Delete leading and trailing silent blocks   : No
Null samples used in CRC calculations       : Yes
Used interface                              : Installed external ASPI interface

Used output format : Internal WAV Routines
Sample format      : 44.100 Hz; 16 Bit; Stereo

TOC of the extracted CD

     Track |   Start  |  Length  | Start sector | End sector
    ---------------------------------------------------------
        1  |  0:00.00 |  3:04.20 |         0    |    13819
        2  |  3:04.20 |  2:02.08 |     13820    |    22977

Range status and errors

Selected range

     Filename E:\Audio in lossless\$ QUEEN $\Queen © 2008 - Singles Collection 1 (13CD's)\09-1977 ''We Are The Champions''\Queen - Singles Collection 1 - We Are The Champions.wav

     Peak level 83.3 %
     Range quality 100.0 %
     Copy CRC 50A5153F
     Copy OK

No errors occurred

End of status report

Продолжительность: 08:10

Треклист:

[font="Tahoma"]01. Spread Your Wings (4:35)
[font="Tahoma"]02. Sheer Heart Attack (3:26)

Код:

Exact Audio Copy V0.99 prebeta 5 from 4. May 2009

EAC extraction logfile from 9. July 2010, 12:00

Queen - Singles Collection 1 / Spread Your Wings

Used drive  : Optiarc DVD RW AD-7203S   Adapter: 3  ID: 1

Read mode               : Secure
Utilize accurate stream : Yes
Defeat audio cache      : Yes
Make use of C2 pointers : No

Read offset correction                      : 48
Overread into Lead-In and Lead-Out          : No
Fill up missing offset samples with silence : Yes
Delete leading and trailing silent blocks   : No
Null samples used in CRC calculations       : Yes
Used interface                              : Installed external ASPI interface

Used output format : Internal WAV Routines
Sample format      : 44.100 Hz; 16 Bit; Stereo

TOC of the extracted CD

     Track |   Start  |  Length  | Start sector | End sector
    ---------------------------------------------------------
        1  |  0:00.00 |  4:35.15 |         0    |    20639
        2  |  4:35.15 |  3:25.59 |     20640    |    36073

Range status and errors

Selected range

     Filename E:\Audio in lossless\$ QUEEN $\Queen © 2008 - Singles Collection 1 (13CD's)\10-1978 ''Spread Your Wings''\Queen - Singles Collection 1 - Spread Your Wings.wav

     Peak level 87.4 %
     Range quality 100.0 %
     Copy CRC A5B299ED
     Copy OK

No errors occurred

End of status report

Продолжительность: 09:09

Треклист:

[font="Tahoma"]01. Bohemian Rhapsody (5:56)
[font="Tahoma"]02. I'm In Love With My Car (3:13)

Код:

Exact Audio Copy V0.99 prebeta 5 from 4. May 2009

EAC extraction logfile from 9. July 2010, 12:27

Queen - Singles Collection 1 / Bohemian Rhapsody

Used drive  : Optiarc DVD RW AD-7203S   Adapter: 3  ID: 1

Read mode               : Secure
Utilize accurate stream : Yes
Defeat audio cache      : Yes
Make use of C2 pointers : No

Read offset correction                      : 48
Overread into Lead-In and Lead-Out          : No
Fill up missing offset samples with silence : Yes
Delete leading and trailing silent blocks   : No
Null samples used in CRC calculations       : Yes
Used interface                              : Installed external ASPI interface

Used output format : Internal WAV Routines
Sample format      : 44.100 Hz; 16 Bit; Stereo

TOC of the extracted CD

     Track |   Start  |  Length  | Start sector | End sector
    ---------------------------------------------------------
        1  |  0:00.00 |  5:55.67 |         0    |    26691
        2  |  5:55.67 |  3:12.46 |     26692    |    41137

Range status and errors

Selected range

     Filename E:\Audio in lossless\$ QUEEN $\Queen © 2008 - Singles Collection 1 (13CD's)\11-1978 ''Bohemian Rhapsody''\Queen - Singles Collection 1 - Bohemian Rhapsody.wav

     Peak level 88.7 %
     Range quality 100.0 %
     Copy CRC B4C3C1E2
     Copy OK

No errors occurred

End of status report

Продолжительность: 06:26

Треклист:

[font="Tahoma"]01. Bicycle Race (3:03)
[font="Tahoma"]02. Fat Bottomed Girls (3:23)

Код:

Exact Audio Copy V0.99 prebeta 5 from 4. May 2009

EAC extraction logfile from 9. July 2010, 13:15

Queen - Singles Collection 1 / Bicycle Race

Used drive  : Optiarc DVD RW AD-7203S   Adapter: 3  ID: 1

Read mode               : Secure
Utilize accurate stream : Yes
Defeat audio cache      : Yes
Make use of C2 pointers : No

Read offset correction                      : 48
Overread into Lead-In and Lead-Out          : No
Fill up missing offset samples with silence : Yes
Delete leading and trailing silent blocks   : No
Null samples used in CRC calculations       : Yes
Used interface                              : Installed external ASPI interface

Used output format : Internal WAV Routines
Sample format      : 44.100 Hz; 16 Bit; Stereo

TOC of the extracted CD

     Track |   Start  |  Length  | Start sector | End sector
    ---------------------------------------------------------
        1  |  0:00.00 |  3:02.62 |         0    |    13711
        2  |  3:02.62 |  3:23.34 |     13712    |    28970

Range status and errors

Selected range

     Filename E:\Audio in lossless\$ QUEEN $\Queen © 2008 - Singles Collection 1 (13CD's)\12-1978 ''Bicycle Race''\Queen - Singles Collection 1 - Bicycle Race.wav

     Peak level 94.6 %
     Range quality 100.0 %
     Copy CRC 4814BC9F
     Copy OK

No errors occurred

End of status report

Продолжительность: 06:23

Треклист:

[font="Tahoma"]01. Don't Stop Me Now (3:32)
[font="Tahoma"]02. In Only Seven Days (2:31)

Код:

Exact Audio Copy V0.99 prebeta 5 from 4. May 2009

EAC extraction logfile from 9. July 2010, 13:44

Queen - Singles Collection 1 / Don't Stop Me Now

Used drive  : Optiarc DVD RW AD-7203S   Adapter: 3  ID: 1

Read mode               : Secure
Utilize accurate stream : Yes
Defeat audio cache      : Yes
Make use of C2 pointers : No

Read offset correction                      : 48
Overread into Lead-In and Lead-Out          : No
Fill up missing offset samples with silence : Yes
Delete leading and trailing silent blocks   : No
Null samples used in CRC calculations       : Yes
Used interface                              : Installed external ASPI interface

Used output format : Internal WAV Routines
Sample format      : 44.100 Hz; 16 Bit; Stereo

TOC of the extracted CD

     Track |   Start  |  Length  | Start sector | End sector
    ---------------------------------------------------------
        1  |  0:00.00 |  3:31.46 |         0    |    15870
        2  |  3:31.46 |  2:31.19 |     15871    |    27214

Range status and errors

Selected range

     Filename D:\Queen Singles Collection\Queen - Singles Collection 1 - Don't Stop Me Now.wav

     Peak level 89.3 %
     Range quality 100.0 %
     Copy CRC 1861DCEA
     Copy OK

No errors occurred

End of status report

Продолжительность: 01:43:15
Продолжительность: 12:26

Треклист:

[font="Tahoma"]01. Love Of My Life (3:43)
[font="Tahoma"]02. Now I'm Here (8:42)

Код:

Exact Audio Copy V0.99 prebeta 5 from 4. May 2009

EAC extraction logfile from 15. July 2010, 5:40

Queen / The Singles Collection Vol.2: Love Of My Life

Used drive  : Optiarc DVD RW AD-7203S   Adapter: 3  ID: 1

Read mode               : Secure
Utilize accurate stream : Yes
Defeat audio cache      : Yes
Make use of C2 pointers : No

Read offset correction                      : 48
Overread into Lead-In and Lead-Out          : No
Fill up missing offset samples with silence : Yes
Delete leading and trailing silent blocks   : No
Null samples used in CRC calculations       : Yes
Used interface                              : Installed external ASPI interface

Used output format : Internal WAV Routines
Sample format      : 44.100 Hz; 16 Bit; Stereo

TOC of the extracted CD

     Track |   Start  |  Length  | Start sector | End sector
    ---------------------------------------------------------
        1  |  0:00.00 |  3:43.23 |         0    |    16747
        2  |  3:43.23 |  8:42.34 |     16748    |    55931

Range status and errors

Selected range

     Filename E:\Audio in lossless\$ QUEEN $\Queen © 2009 - Singles Collection 2 (13CD's)\01-1979 ''Love Of My Life''\Queen - The Singles Collection Vol.2  Love Of My Life.wav

     Peak level 95.7 %
     Range quality 100.0 %
     Copy CRC 484F3613
     Copy OK

No errors occurred

End of status report

Продолжительность: 05:23

Треклист:

[font="Tahoma"]01. Crazy Little Thing Called Love (2:45)
[font="Tahoma"]02. We Will Rock You (3:08)

Код:

Exact Audio Copy V0.99 prebeta 5 from 4. May 2009

EAC extraction logfile from 15. July 2010, 6:03

Queen / The Singles Collection Vol.2: Crazy Little Thing Called Love

Used drive  : Optiarc DVD RW AD-7203S   Adapter: 3  ID: 1

Read mode               : Secure
Utilize accurate stream : Yes
Defeat audio cache      : Yes
Make use of C2 pointers : No

Read offset correction                      : 48
Overread into Lead-In and Lead-Out          : No
Fill up missing offset samples with silence : Yes
Delete leading and trailing silent blocks   : No
Null samples used in CRC calculations       : Yes
Used interface                              : Installed external ASPI interface

Used output format : Internal WAV Routines
Sample format      : 44.100 Hz; 16 Bit; Stereo

TOC of the extracted CD

     Track |   Start  |  Length  | Start sector | End sector
    ---------------------------------------------------------
        1  |  0:00.00 |  2:44.71 |         0    |    12370
        2  |  2:44.71 |  3:07.56 |     12371    |    26451

Range status and errors

Selected range

     Filename E:\Audio in lossless\$ QUEEN $\Queen © 2009 - Singles Collection 2 (13CD's)\02-1979 ''Crazy Little Thing Called Love''\Queen - The Singles Collection Vol.2  Crazy Little Thing Called Love.wav

     Peak level 98.6 %
     Range quality 100.0 %
     Copy CRC BE12A5DA
     Copy OK

No errors occurred

End of status report

Продолжительность: 07:04

Треклист:

[font="Tahoma"]01. Save Me (3:50)
[font="Tahoma"]02. Let Me Entertain You (3:14)

Код:

Exact Audio Copy V0.99 prebeta 5 from 4. May 2009

EAC extraction logfile from 15. July 2010, 6:22

Queen / The Singles Collection Vol.2: Save Me

Used drive  : Optiarc DVD RW AD-7203S   Adapter: 3  ID: 1

Read mode               : Secure
Utilize accurate stream : Yes
Defeat audio cache      : Yes
Make use of C2 pointers : No

Read offset correction                      : 48
Overread into Lead-In and Lead-Out          : No
Fill up missing offset samples with silence : Yes
Delete leading and trailing silent blocks   : No
Null samples used in CRC calculations       : Yes
Used interface                              : Installed external ASPI interface

Used output format : Internal WAV Routines
Sample format      : 44.100 Hz; 16 Bit; Stereo

TOC of the extracted CD

     Track |   Start  |  Length  | Start sector | End sector
    ---------------------------------------------------------
        1  |  0:00.00 |  3:49.59 |         0    |    17233
        2  |  3:49.59 |  3:14.12 |     17234    |    31795

Range status and errors

Selected range

     Filename E:\Audio in lossless\$ QUEEN $\Queen © 2009 - Singles Collection 2 (13CD's)\03-1979 ''Save Me''\Queen - The Singles Collection Vol.2  Save Me.wav

     Peak level 99.8 %
     Range quality 100.0 %
     Copy CRC 7516935B
     Copy OK

No errors occurred

End of status report

Продолжительность: 07:16

[font="Tahoma"]01. Play The Game (03:31)
[font="Tahoma"]02. A Human Body (03:42)

Код:

Exact Audio Copy V0.99 prebeta 5 from 4. May 2009

EAC extraction logfile from 15. July 2010, 6:42

Queen / The Singles Collection Vol.2: Play The Game

Used drive  : Optiarc DVD RW AD-7203S   Adapter: 3  ID: 1

Read mode               : Secure
Utilize accurate stream : Yes
Defeat audio cache      : Yes
Make use of C2 pointers : No

Read offset correction                      : 48
Overread into Lead-In and Lead-Out          : No
Fill up missing offset samples with silence : Yes
Delete leading and trailing silent blocks   : No
Null samples used in CRC calculations       : Yes
Used interface                              : Installed external ASPI interface

Used output format : Internal WAV Routines
Sample format      : 44.100 Hz; 16 Bit; Stereo

TOC of the extracted CD

     Track |   Start  |  Length  | Start sector | End sector
    ---------------------------------------------------------
        1  |  0:00.00 |  3:32.62 |         0    |    15961
        2  |  3:32.62 |  3:42.59 |     15962    |    32670

Range status and errors

Selected range

     Filename E:\Audio in lossless\$ QUEEN $\Queen © 2009 - Singles Collection 2 (13CD's)\04-1980 ''Play The Game''\Queen - The Singles Collection Vol.2  Play The Game.wav

     Peak level 99.8 %
     Range quality 100.0 %
     Copy CRC 5EC7ABB9
     Copy OK

No errors occurred

End of status report

Продолжительность: 07:55

Треклист:

[font="Tahoma"]01. Another One Bites The Dust (3:36)
[font="Tahoma"]02. Dragon Attack (4:19)

Код:

Exact Audio Copy V0.99 prebeta 5 from 4. May 2009

EAC extraction logfile from 15. July 2010, 7:00

Queen / The Singles Collection Vol.2: Another One Bites The Dust

Used drive  : Optiarc DVD RW AD-7203S   Adapter: 3  ID: 1

Read mode               : Secure
Utilize accurate stream : Yes
Defeat audio cache      : Yes
Make use of C2 pointers : No

Read offset correction                      : 48
Overread into Lead-In and Lead-Out          : No
Fill up missing offset samples with silence : Yes
Delete leading and trailing silent blocks   : No
Null samples used in CRC calculations       : Yes
Used interface                              : Installed external ASPI interface

Used output format : Internal WAV Routines
Sample format      : 44.100 Hz; 16 Bit; Stereo

TOC of the extracted CD

     Track |   Start  |  Length  | Start sector | End sector
    ---------------------------------------------------------
        1  |  0:00.00 |  3:36.29 |         0    |    16228
        2  |  3:36.29 |  4:19.00 |     16229    |    35653

Range status and errors

Selected range

     Filename E:\Audio in lossless\$ QUEEN $\Queen © 2009 - Singles Collection 2 (13CD's)\05-1980 ''Another One Bites The Dust''\Queen - The Singles Collection Vol.2  Another One Bites The Dust.wav

     Peak level 98.8 %
     Range quality 100.0 %
     Copy CRC C1C3B5BA
     Copy OK

No errors occurred

End of status report

Продолжительность: 04:21

Треклист:

[font="Tahoma"]01. Flash's Theme A/K/A Flash (2:52)
[font="Tahoma"]02. Footbal Fight (1:29)

Код:

Exact Audio Copy V0.99 prebeta 5 from 4. May 2009

EAC extraction logfile from 15. July 2010, 7:21

Queen / The Singles Collection Vol.2: Flash's Theme

Used drive  : Optiarc DVD RW AD-7203S   Adapter: 3  ID: 1

Read mode               : Secure
Utilize accurate stream : Yes
Defeat audio cache      : Yes
Make use of C2 pointers : No

Read offset correction                      : 48
Overread into Lead-In and Lead-Out          : No
Fill up missing offset samples with silence : Yes
Delete leading and trailing silent blocks   : No
Null samples used in CRC calculations       : Yes
Used interface                              : Installed external ASPI interface

Used output format : Internal WAV Routines
Sample format      : 44.100 Hz; 16 Bit; Stereo

TOC of the extracted CD

     Track |   Start  |  Length  | Start sector | End sector
    ---------------------------------------------------------
        1  |  0:00.00 |  2:51.52 |         0    |    12876
        2  |  2:51.52 |  1:29.20 |     12877    |    19571

Range status and errors

Selected range

     Filename E:\Audio in lossless\$ QUEEN $\Queen © 2009 - Singles Collection 2 (13CD's)\06-1980 ''Flash's Theme''\Queen - The Singles Collection Vol.2  Flash's Theme.wav

     Peak level 94.0 %
     Range quality 100.0 %
     Copy CRC 85BB8F89
     Copy OK

No errors occurred

End of status report

Продолжительность: 07:45

Треклист:

[font="Tahoma"]01. Under Pressure (4:07)
[font="Tahoma"]02. Soul Brother (3:39)

Код:

Exact Audio Copy V0.99 prebeta 5 from 4. May 2009

EAC extraction logfile from 15. July 2010, 7:43

Queen / The Singles Collection Vol.2: Under Pressure

Used drive  : Optiarc DVD RW AD-7203S   Adapter: 3  ID: 1

Read mode               : Secure
Utilize accurate stream : Yes
Defeat audio cache      : Yes
Make use of C2 pointers : No

Read offset correction                      : 48
Overread into Lead-In and Lead-Out          : No
Fill up missing offset samples with silence : Yes
Delete leading and trailing silent blocks   : No
Null samples used in CRC calculations       : Yes
Used interface                              : Installed external ASPI interface

Used output format : Internal WAV Routines
Sample format      : 44.100 Hz; 16 Bit; Stereo

TOC of the extracted CD

     Track |   Start  |  Length  | Start sector | End sector
    ---------------------------------------------------------
        1  |  0:00.00 |  4:06.72 |         0    |    18521
        2  |  4:06.72 |  3:38.38 |     18522    |    34909

Range status and errors

Selected range

     Filename E:\Audio in lossless\$ QUEEN $\Queen © 2009 - Singles Collection 2 (13CD's)\07-1981 ''Under Pressure''\Queen - The Singles Collection Vol.2  Under Pressure.wav

     Peak level 98.0 %
     Range quality 100.0 %
     Copy CRC 6396E34C
     Copy OK

No errors occurred

End of status report

Продолжительность: 08:05

Треклист:

[font="Tahoma"]01. Body Language (4:34)
[font="Tahoma"]02. Life Is Real (3:30)

Код:

Exact Audio Copy V0.99 prebeta 5 from 4. May 2009

EAC extraction logfile from 15. July 2010, 8:01

Queen / The Singles Collection Vol.2: Body Language

Used drive  : Optiarc DVD RW AD-7203S   Adapter: 3  ID: 1

Read mode               : Secure
Utilize accurate stream : Yes
Defeat audio cache      : Yes
Make use of C2 pointers : No

Read offset correction                      : 48
Overread into Lead-In and Lead-Out          : No
Fill up missing offset samples with silence : Yes
Delete leading and trailing silent blocks   : No
Null samples used in CRC calculations       : Yes
Used interface                              : Installed external ASPI interface

Used output format : Internal WAV Routines
Sample format      : 44.100 Hz; 16 Bit; Stereo

TOC of the extracted CD

     Track |   Start  |  Length  | Start sector | End sector
    ---------------------------------------------------------
        1  |  0:00.00 |  4:34.30 |         0    |    20579
        2  |  4:34.30 |  3:30.33 |     20580    |    36362

Range status and errors

Selected range

     Filename E:\Audio in lossless\$ QUEEN $\Queen © 2009 - Singles Collection 2 (13CD's)\08-1982 ''Body Language''\Queen - The Singles Collection Vol.2  Body Language.wav

     Peak level 97.7 %
     Range quality 99.9 %
     Copy CRC 6C2CCF14
     Copy OK

No errors occurred

End of status report

Продолжительность: 08:01

Треклист:

[font="Tahoma"]01. Las Palabras De Amor (The Words Of Love) (4:32)
[font="Tahoma"]02. Cool Cat (3:29)

Код:

Exact Audio Copy V0.99 prebeta 5 from 4. May 2009

EAC extraction logfile from 15. July 2010, 8:22

Queen / The Singles Collection Vol.2: Las Palabras De Amor

Used drive  : Optiarc DVD RW AD-7203S   Adapter: 3  ID: 1

Read mode               : Secure
Utilize accurate stream : Yes
Defeat audio cache      : Yes
Make use of C2 pointers : No

Read offset correction                      : 48
Overread into Lead-In and Lead-Out          : No
Fill up missing offset samples with silence : Yes
Delete leading and trailing silent blocks   : No
Null samples used in CRC calculations       : Yes
Used interface                              : Installed external ASPI interface

Used output format : Internal WAV Routines
Sample format      : 44.100 Hz; 16 Bit; Stereo

TOC of the extracted CD

     Track |   Start  |  Length  | Start sector | End sector
    ---------------------------------------------------------
        1  |  0:00.00 |  4:32.13 |         0    |    20412
        2  |  4:32.13 |  3:28.51 |     20413    |    36063

Range status and errors

Selected range

     Filename E:\Audio in lossless\$ QUEEN $\Queen © 2009 - Singles Collection 2 (13CD's)\09-1982 ''Las Palabras De Amor''\Queen - The Singles Collection Vol.2  Las Palabras De Amor.wav

     Peak level 96.5 %
     Range quality 99.9 %
     Copy CRC 6304BD5C
     Copy OK

No errors occurred

End of status report

Продолжительность: 07:13

Треклист:

[font="Tahoma"]01. Calling All Girls (3:54)
[font="Tahoma"]02. Put Out The Fire (3:20)

Код:

Exact Audio Copy V0.99 prebeta 5 from 4. May 2009

EAC extraction logfile from 15. July 2010, 8:45

Queen / The Singles Collection Vol.2: Calling All Girls

Used drive  : Optiarc DVD RW AD-7203S   Adapter: 3  ID: 1

Read mode               : Secure
Utilize accurate stream : Yes
Defeat audio cache      : Yes
Make use of C2 pointers : No

Read offset correction                      : 48
Overread into Lead-In and Lead-Out          : No
Fill up missing offset samples with silence : Yes
Delete leading and trailing silent blocks   : No
Null samples used in CRC calculations       : Yes
Used interface                              : Installed external ASPI interface

Used output format : Internal WAV Routines
Sample format      : 44.100 Hz; 16 Bit; Stereo

TOC of the extracted CD

     Track |   Start  |  Length  | Start sector | End sector
    ---------------------------------------------------------
        1  |  0:00.00 |  3:53.50 |         0    |    17524
        2  |  3:53.50 |  3:19.41 |     17525    |    32490

Range status and errors

Selected range

     Filename E:\Audio in lossless\$ QUEEN $\Queen © 2009 - Singles Collection 2 (13CD's)\10-1982 ''Calling All Girl''\Queen - The Singles Collection Vol.2  Calling All Girls.wav

     Peak level 98.6 %
     Range quality 100.0 %
     Copy CRC 67B5F6EA
     Copy OK

No errors occurred

End of status report

Продолжительность: 08:24

Треклист:

[font="Tahoma"]01. Back Chat (4:12)
[font="Tahoma"]02. Staying Power (4:12)

Код:

Exact Audio Copy V0.99 prebeta 5 from 4. May 2009

EAC extraction logfile from 15. July 2010, 9:01

Queen / The Singles Collection Vol.2: Back Chat

Used drive  : Optiarc DVD RW AD-7203S   Adapter: 3  ID: 1

Read mode               : Secure
Utilize accurate stream : Yes
Defeat audio cache      : Yes
Make use of C2 pointers : No

Read offset correction                      : 48
Overread into Lead-In and Lead-Out          : No
Fill up missing offset samples with silence : Yes
Delete leading and trailing silent blocks   : No
Null samples used in CRC calculations       : Yes
Used interface                              : Installed external ASPI interface

Used output format : Internal WAV Routines
Sample format      : 44.100 Hz; 16 Bit; Stereo

TOC of the extracted CD

     Track |   Start  |  Length  | Start sector | End sector
    ---------------------------------------------------------
        1  |  0:00.00 |  4:12.01 |         0    |    18900
        2  |  4:12.01 |  4:11.53 |     18901    |    37778

Range status and errors

Selected range

     Filename E:\Audio in lossless\$ QUEEN $\Queen © 2009 - Singles Collection 2 (13CD's)\11-1982 ''Back Chat''\Queen - The Singles Collection Vol.2  Back Chat.wav

     Peak level 95.4 %
     Range quality 99.9 %
     Copy CRC 580C7430
     Copy OK

No errors occurred

End of status report

Продолжительность: 09:33

Треклист:

[font="Tahoma"]01. Radio Ga Ga (5:50)
[font="Tahoma"]02. I Go Crazy (3:43)

Код:

Exact Audio Copy V0.99 prebeta 5 from 4. May 2009

EAC extraction logfile from 15. July 2010, 9:25

Queen / The Singles Collection Vol.2: Radio Ga Ga

Used drive  : Optiarc DVD RW AD-7203S   Adapter: 3  ID: 1

Read mode               : Secure
Utilize accurate stream : Yes
Defeat audio cache      : Yes
Make use of C2 pointers : No

Read offset correction                      : 48
Overread into Lead-In and Lead-Out          : No
Fill up missing offset samples with silence : Yes
Delete leading and trailing silent blocks   : No
Null samples used in CRC calculations       : Yes
Used interface                              : Installed external ASPI interface

Used output format : Internal WAV Routines
Sample format      : 44.100 Hz; 16 Bit; Stereo

TOC of the extracted CD

     Track |   Start  |  Length  | Start sector | End sector
    ---------------------------------------------------------
        1  |  0:00.00 |  5:50.30 |         0    |    26279
        2  |  5:50.30 |  3:42.64 |     26280    |    42993

Range status and errors

Selected range

     Filename E:\Audio in lossless\$ QUEEN $\Queen © 2009 - Singles Collection 2 (13CD's)\12-1984 ''Radio Ga Ga''\Queen - The Singles Collection Vol.2  Radio Ga Ga.wav

     Peak level 96.1 %
     Range quality 100.0 %
     Copy CRC 9D0A0F35
     Copy OK

No errors occurred

End of status report

Продолжительность: 09:34

Треклист:

[font="Tahoma"]01. I Want To Break Free (4:26)
[font="Tahoma"]02. Machines (or 'Back To Humans') (5:09)

Код:

Exact Audio Copy V0.99 prebeta 5 from 4. May 2009

EAC extraction logfile from 15. July 2010, 9:40

Queen / The Singles Collection Vol.2: I Want To Break Free

Used drive  : Optiarc DVD RW AD-7203S   Adapter: 3  ID: 1

Read mode               : Secure
Utilize accurate stream : Yes
Defeat audio cache      : Yes
Make use of C2 pointers : No

Read offset correction                      : 48
Overread into Lead-In and Lead-Out          : No
Fill up missing offset samples with silence : Yes
Delete leading and trailing silent blocks   : No
Null samples used in CRC calculations       : Yes
Used interface                              : Installed external ASPI interface

Used output format : Internal WAV Routines
Sample format      : 44.100 Hz; 16 Bit; Stereo

TOC of the extracted CD

     Track |   Start  |  Length  | Start sector | End sector
    ---------------------------------------------------------
        1  |  0:00.00 |  4:25.39 |         0    |    19913
        2  |  4:25.39 |  5:08.48 |     19914    |    43061

Range status and errors

Selected range

     Filename E:\Audio in lossless\$ QUEEN $\Queen © 2009 - Singles Collection 2 (13CD's)\13-1984 ''I Want To Break Free''\Queen - The Singles Collection Vol.2  I Want To Break Free.wav

     Peak level 99.3 %
     Range quality 100.0 %
     Copy CRC 7F16CA3A
     Copy OK

No errors occurred

End of status report

Общая Продолжительность: 01:48:58
Продолжительность: 06:24

Треклист:

[font="Tahoma"]01. It's A Hard Life (4:10)
[font="Tahoma"]02. Is This The World We Created ...? (2:13)

Код:

Exact Audio Copy V0.99 prebeta 5 from 4. May 2009

EAC extraction logfile from 8. July 2010, 10:01

Queen - Singles Collection 3 / It's A Hard Life

Used drive  : Optiarc DVD RW AD-7203S   Adapter: 3  ID: 1

Read mode               : Secure
Utilize accurate stream : Yes
Defeat audio cache      : Yes
Make use of C2 pointers : No

Read offset correction                      : 48
Overread into Lead-In and Lead-Out          : No
Fill up missing offset samples with silence : Yes
Delete leading and trailing silent blocks   : No
Null samples used in CRC calculations       : Yes
Used interface                              : Installed external ASPI interface

Used output format : Internal WAV Routines
Sample format      : 44.100 Hz; 16 Bit; Stereo

TOC of the extracted CD

     Track |   Start  |  Length  | Start sector | End sector
    ---------------------------------------------------------
        1  |  0:00.00 |  4:10.21 |         0    |    18770
        2  |  4:10.21 |  2:13.24 |     18771    |    28769

Range status and errors

Selected range

     Filename E:\Audio in lossless\$ QUEEN $\Queen © 2010 - Singles Collection 3 (13CD's)\01-1984 ''It's A Hard Life''\Queen - Singles Collection 3 - It's A Hard Life.wav

     Peak level 99.4 %
     Range quality 100.0 %
     Copy CRC CA28337A
     Copy OK

No errors occurred

End of status report

Продолжительность: 07:07

Треклист:

[font="Tahoma"]01. Hammer To Fall (3:41)
[font="Tahoma"]02. Tear It Up (3:26)

Код:

Exact Audio Copy V0.99 prebeta 5 from 4. May 2009

EAC extraction logfile from 8. July 2010, 10:37

Queen - Singles Collection 3 / Hammer To Fall

Used drive  : Optiarc DVD RW AD-7203S   Adapter: 3  ID: 1

Read mode               : Secure
Utilize accurate stream : Yes
Defeat audio cache      : Yes
Make use of C2 pointers : No

Read offset correction                      : 48
Overread into Lead-In and Lead-Out          : No
Fill up missing offset samples with silence : Yes
Delete leading and trailing silent blocks   : No
Null samples used in CRC calculations       : Yes
Used interface                              : Installed external ASPI interface

Used output format : Internal WAV Routines
Sample format      : 44.100 Hz; 16 Bit; Stereo

TOC of the extracted CD

     Track |   Start  |  Length  | Start sector | End sector
    ---------------------------------------------------------
        1  |  0:00.00 |  3:41.30 |         0    |    16604
        2  |  3:41.30 |  3:25.66 |     16605    |    32045

Range status and errors

Selected range

     Filename E:\Audio in lossless\$ QUEEN $\Queen © 2010 - Singles Collection 3 (13CD's)\02-1984 ''Hammer To Fall''\Queen - Singles Collection 3 - Hammer To Fall.wav

     Peak level 96.8 %
     Range quality 100.0 %
     Copy CRC C1CF0573
     Copy OK

No errors occurred

End of status report

Продолжительность: 13:14

Треклист:

[font="Tahoma"]01. Thank God It's Christmas (4:23)
[font="Tahoma"]02. Man On The Prowl (3:29)
[font="Tahoma"]03. Keep Passing The Open Windows (5:23)

Код:

Exact Audio Copy V0.99 prebeta 5 from 4. May 2009

EAC extraction logfile from 8. July 2010, 11:00

Queen - Singles Collection 3 / Thank God It's Christmas

Used drive  : Optiarc DVD RW AD-7203S   Adapter: 3  ID: 1

Read mode               : Secure
Utilize accurate stream : Yes
Defeat audio cache      : Yes
Make use of C2 pointers : No

Read offset correction                      : 48
Overread into Lead-In and Lead-Out          : No
Fill up missing offset samples with silence : Yes
Delete leading and trailing silent blocks   : No
Null samples used in CRC calculations       : Yes
Used interface                              : Installed external ASPI interface

Used output format : Internal WAV Routines
Sample format      : 44.100 Hz; 16 Bit; Stereo

TOC of the extracted CD

     Track |   Start  |  Length  | Start sector | End sector
    ---------------------------------------------------------
        1  |  0:00.00 |  4:22.54 |         0    |    19703
        2  |  4:22.54 |  3:28.38 |     19704    |    35341
        3  |  7:51.17 |  5:22.57 |     35342    |    59548

Range status and errors

Selected range

     Filename E:\Audio in lossless\$ QUEEN $\Queen © 2010 - Singles Collection 3 (13CD's)\03-1984 ''Thank God It's Christmas''\Queen - Singles Collection 3 - Thank God It's Christmas.wav

     Peak level 99.3 %
     Range quality 100,0 %
     Copy CRC 6699513B
     Copy OK

No errors occurred

End of status report

Продолжительность: 08:46

Треклист:

[font="Tahoma"]01. One Vision (4:04)
[font="Tahoma"]02. Blurred Vision (4:42)

Код:

Exact Audio Copy V0.99 prebeta 5 from 4. May 2009

EAC extraction logfile from 8. July 2010, 11:33

Queen - Singles Collection 3 / One Vision

Used drive  : Optiarc DVD RW AD-7203S   Adapter: 3  ID: 1

Read mode               : Secure
Utilize accurate stream : Yes
Defeat audio cache      : Yes
Make use of C2 pointers : No

Read offset correction                      : 48
Overread into Lead-In and Lead-Out          : No
Fill up missing offset samples with silence : Yes
Delete leading and trailing silent blocks   : No
Null samples used in CRC calculations       : Yes
Used interface                              : Installed external ASPI interface

Used output format : Internal WAV Routines
Sample format      : 44.100 Hz; 16 Bit; Stereo

TOC of the extracted CD

     Track |   Start  |  Length  | Start sector | End sector
    ---------------------------------------------------------
        1  |  0:00.00 |  4:03.38 |         0    |    18262
        2  |  4:03.38 |  4:42.12 |     18263    |    39424

Range status and errors

Selected range

     Filename E:\Audio in lossless\$ QUEEN $\Queen © 2010 - Singles Collection 3 (13CD's)\04-1985 ''One Vision''\Queen - Singles Collection 3 - One Vision.wav

     Peak level 99.2 %
     Range quality 100.0 %
     Copy CRC B0219684
     Copy OK

No errors occurred

End of status report

Продолжительность: 09:12

Треклист:

[font="Tahoma"]01. A Kind Of Magic (4:28)
[font="Tahoma"]02. A Dozen Red Roses For My Darling (4:45)

Код:

Exact Audio Copy V0.99 prebeta 5 from 4. May 2009

EAC extraction logfile from 8. July 2010, 11:58

Queen - Singles Collection 3 / A Kind Of Magic

Used drive  : Optiarc DVD RW AD-7203S   Adapter: 3  ID: 1

Read mode               : Secure
Utilize accurate stream : Yes
Defeat audio cache      : Yes
Make use of C2 pointers : No

Read offset correction                      : 48
Overread into Lead-In and Lead-Out          : No
Fill up missing offset samples with silence : Yes
Delete leading and trailing silent blocks   : No
Null samples used in CRC calculations       : Yes
Used interface                              : Installed external ASPI interface

Used output format : Internal WAV Routines
Sample format      : 44.100 Hz; 16 Bit; Stereo

TOC of the extracted CD

     Track |   Start  |  Length  | Start sector | End sector
    ---------------------------------------------------------
        1  |  0:00.00 |  4:27.49 |         0    |    20073
        2  |  4:27.49 |  4:44.40 |     20074    |    41413

Range status and errors

Selected range

     Filename E:\Audio in lossless\$ QUEEN $\Queen © 2010 - Singles Collection 3 (13CD's)\05-1986 ''A Kind Of Magic''\Queen - Singles Collection 3 - A Kind Of Magic.wav

     Peak level 99.1 %
     Range quality 100.0 %
     Copy CRC 690DA9E4
     Copy OK

No errors occurred

End of status report

Продолжительность: 07:40

Треклист:

[font="Tahoma"]01. Friends Will Be Friends (4:08)
[font="Tahoma"]02. Princes Of The Universe (3:32)

Код:

Exact Audio Copy V0.99 prebeta 5 from 4. May 2009

EAC extraction logfile from 8. July 2010, 12:23

Queen - Singles Collection 3 / Friends Will Be Friends

Used drive  : Optiarc DVD RW AD-7203S   Adapter: 3  ID: 1

Read mode               : Secure
Utilize accurate stream : Yes
Defeat audio cache      : Yes
Make use of C2 pointers : No

Read offset correction                      : 48
Overread into Lead-In and Lead-Out          : No
Fill up missing offset samples with silence : Yes
Delete leading and trailing silent blocks   : No
Null samples used in CRC calculations       : Yes
Used interface                              : Installed external ASPI interface

Used output format : Internal WAV Routines
Sample format      : 44.100 Hz; 16 Bit; Stereo

TOC of the extracted CD

     Track |   Start  |  Length  | Start sector | End sector
    ---------------------------------------------------------
        1  |  0:00.00 |  4:08.14 |         0    |    18613
        2  |  4:08.14 |  3:32.00 |     18614    |    34513

Range status and errors

Selected range

     Filename E:\Audio in lossless\$ QUEEN $\Queen © 2010 - Singles Collection 3 (13CD's)\06-1986 ''Friends Will Be Friends''\Queen - Singles Collection 3 - Friends Will Be Friends.wav

     Peak level 98.8 %
     Range quality 100.0 %
     Copy CRC 6F3E479A
     Copy OK

No errors occurred

End of status report

Продолжительность: 08:40

Треклист:

[font="Tahoma"]01. Pain Is So Close To Pleasure (4:01)
[font="Tahoma"]02. Don't Lose Your Head (4:39)

Код:

Exact Audio Copy V0.99 prebeta 5 from 4. May 2009

EAC extraction logfile from 8. July 2010, 12:50

Queen - Singles Collection 3 / Pain Is So  Close To Pleasure

Used drive  : Optiarc DVD RW AD-7203S   Adapter: 3  ID: 1

Read mode               : Secure
Utilize accurate stream : Yes
Defeat audio cache      : Yes
Make use of C2 pointers : No

Read offset correction                      : 48
Overread into Lead-In and Lead-Out          : No
Fill up missing offset samples with silence : Yes
Delete leading and trailing silent blocks   : No
Null samples used in CRC calculations       : Yes
Used interface                              : Installed external ASPI interface

Used output format : Internal WAV Routines
Sample format      : 44.100 Hz; 16 Bit; Stereo

TOC of the extracted CD

     Track |   Start  |  Length  | Start sector | End sector
    ---------------------------------------------------------
        1  |  0:00.00 |  4:01.27 |         0    |    18101
        2  |  4:01.27 |  4:38.53 |     18102    |    39004

Range status and errors

Selected range

     Filename E:\Audio in lossless\$ QUEEN $\Queen © 2010 - Singles Collection 3 (13CD's)\07-1986 ''Pain Is So  Close To Pleasure''\Queen - Singles Collection 3 - Pain Is So  Close To Pleasure.wav

     Peak level 99.1 %
     Range quality 100.0 %
     Copy CRC 04B8BF5D
     Copy OK

No errors occurred

End of status report

Продолжительность: 07:25

Треклист:

[font="Tahoma"]01. Who Wants To Live Forever (4:04)
[font="Tahoma"]02. Forever (Piano Version) (3:21)

Код:

Exact Audio Copy V0.99 prebeta 5 from 4. May 2009

EAC extraction logfile from 8. July 2010, 13:25

Queen - Singles Collection 3 / Who Wants To Live Forever

Used drive  : Optiarc DVD RW AD-7203S   Adapter: 3  ID: 1

Read mode               : Secure
Utilize accurate stream : Yes
Defeat audio cache      : Yes
Make use of C2 pointers : No

Read offset correction                      : 48
Overread into Lead-In and Lead-Out          : No
Fill up missing offset samples with silence : Yes
Delete leading and trailing silent blocks   : No
Null samples used in CRC calculations       : Yes
Used interface                              : Installed external ASPI interface

Used output format : Internal WAV Routines
Sample format      : 44.100 Hz; 16 Bit; Stereo

TOC of the extracted CD

     Track |   Start  |  Length  | Start sector | End sector
    ---------------------------------------------------------
        1  |  0:00.00 |  4:04.15 |         0    |    18314
        2  |  4:04.15 |  3:21.16 |     18315    |    33405

Range status and errors

Selected range

     Filename E:\Audio in lossless\$ QUEEN $\Queen © 2010 - Singles Collection 3 (13CD's)\08-1986 ''Who Wants To Live Forever''\Queen - Singles Collection 3 - Who Wants To Live Forever.wav

     Peak level 94.1 %
     Range quality 100.0 %
     Copy CRC 61EFCAA1
     Copy OK

No errors occurred

End of status report

Продолжительность: 09:04

Треклист:

[font="Tahoma"]01. One Year Of Love (4:29)
[font="Tahoma"]02. Gimme The Prize (4:35)

Код:

Exact Audio Copy V0.99 prebeta 5 from 4. May 2009

EAC extraction logfile from 8. July 2010, 13:55

Queen - Singles Collection 3 / One Year Of Love

Used drive  : Optiarc DVD RW AD-7203S   Adapter: 3  ID: 1

Read mode               : Secure
Utilize accurate stream : Yes
Defeat audio cache      : Yes
Make use of C2 pointers : No

Read offset correction                      : 48
Overread into Lead-In and Lead-Out          : No
Fill up missing offset samples with silence : Yes
Delete leading and trailing silent blocks   : No
Null samples used in CRC calculations       : Yes
Used interface                              : Installed external ASPI interface

Used output format : Internal WAV Routines
Sample format      : 44.100 Hz; 16 Bit; Stereo

TOC of the extracted CD

     Track |   Start  |  Length  | Start sector | End sector
    ---------------------------------------------------------
        1  |  0:00.00 |  4:28.58 |         0    |    20157
        2  |  4:28.58 |  4:34.65 |     20158    |    40772

Range status and errors

Selected range

     Filename E:\Audio in lossless\$ QUEEN $\Queen © 2010 - Singles Collection 3 (13CD's)\09-1986 ''One Year Of Love''\Queen - Singles Collection 3 - One Year Of Love.wav

     Peak level 98.8 %
     Range quality 100.0 %
     Copy CRC A38EE928
     Copy OK

No errors occurred

End of status report

Продолжительность: 07:50

Треклист:

[font="Tahoma"]01. I Want It All (4:04)
[font="Tahoma"]02. Hang On In There (3:46)

Код:

Exact Audio Copy V0.99 prebeta 5 from 4. May 2009

EAC extraction logfile from 8. July 2010, 14:23

Queen - Singles Collection 3 / I Want It All

Used drive  : Optiarc DVD RW AD-7203S   Adapter: 3  ID: 1

Read mode               : Secure
Utilize accurate stream : Yes
Defeat audio cache      : Yes
Make use of C2 pointers : No

Read offset correction                      : 48
Overread into Lead-In and Lead-Out          : No
Fill up missing offset samples with silence : Yes
Delete leading and trailing silent blocks   : No
Null samples used in CRC calculations       : Yes
Used interface                              : Installed external ASPI interface

Used output format : Internal WAV Routines
Sample format      : 44.100 Hz; 16 Bit; Stereo

TOC of the extracted CD

     Track |   Start  |  Length  | Start sector | End sector
    ---------------------------------------------------------
        1  |  0:00.00 |  4:03.51 |         0    |    18275
        2  |  4:03.51 |  3:46.10 |     18276    |    35235

Range status and errors

Selected range

     Filename E:\Audio in lossless\$ QUEEN $\Queen © 2010 - Singles Collection 3 (13CD's)\10-1989 ''I Want It All''\Queen - Singles Collection 3 - I Want It All.wav

     Peak level 99.2 %
     Range quality 100.0 %
     Copy CRC 7B169361
     Copy OK

No errors occurred

End of status report

Продолжительность: 08:10

Треклист:

[font="Tahoma"]01. Breakthru (4:11)
[font="Tahoma"]02. Stealin' (3:59)

Код:

Exact Audio Copy V0.99 prebeta 5 from 4. May 2009

EAC extraction logfile from 8. July 2010, 14:48

Queen - Singles Collection 3 / Breakthru

Used drive  : Optiarc DVD RW AD-7203S   Adapter: 3  ID: 1

Read mode               : Secure
Utilize accurate stream : Yes
Defeat audio cache      : Yes
Make use of C2 pointers : No

Read offset correction                      : 48
Overread into Lead-In and Lead-Out          : No
Fill up missing offset samples with silence : Yes
Delete leading and trailing silent blocks   : No
Null samples used in CRC calculations       : Yes
Used interface                              : Installed external ASPI interface

Used output format : Internal WAV Routines
Sample format      : 44.100 Hz; 16 Bit; Stereo

TOC of the extracted CD

     Track |   Start  |  Length  | Start sector | End sector
    ---------------------------------------------------------
        1  |  0:00.00 |  4:10.40 |         0    |    18789
        2  |  4:10.40 |  3:59.11 |     18790    |    36725

Range status and errors

Selected range

     Filename E:\Audio in lossless\$ QUEEN $\Queen © 2010 - Singles Collection 3 (13CD's)\11-1989 ''Breakthru''\Queen - Singles Collection 3 - Breakthru.wav

     Peak level 98.7 %
     Range quality 100.0 %
     Copy CRC 0EF140EA
     Copy OK

No errors occurred

End of status report

Продолжительность: 08:10

Треклист:

[font="Tahoma"]01. The Invisible Man (3:59)
[font="Tahoma"]02. Hijack My Heart (4:11)

Код:

Exact Audio Copy V0.99 prebeta 5 from 4. May 2009

EAC extraction logfile from 8. July 2010, 15:25

Queen - Singles Collection 3 / The Invisible Man

Used drive  : Optiarc DVD RW AD-7203S   Adapter: 3  ID: 1

Read mode               : Secure
Utilize accurate stream : Yes
Defeat audio cache      : Yes
Make use of C2 pointers : No

Read offset correction                      : 48
Overread into Lead-In and Lead-Out          : No
Fill up missing offset samples with silence : Yes
Delete leading and trailing silent blocks   : No
Null samples used in CRC calculations       : Yes
Used interface                              : Installed external ASPI interface

Used output format : Internal WAV Routines
Sample format      : 44.100 Hz; 16 Bit; Stereo

TOC of the extracted CD

     Track |   Start  |  Length  | Start sector | End sector
    ---------------------------------------------------------
        1  |  0:00.00 |  3:58.44 |         0    |    17893
        2  |  3:58.44 |  4:11.33 |     17894    |    36751

Range status and errors

Selected range

     Filename E:\Audio in lossless\$ QUEEN $\Queen © 2010 - Singles Collection 3 (13CD's)\12-1989 ''The Invisible Man''\Queen - Singles Collection 3 - The Invisible Man.wav

     Peak level 99.1 %
     Range quality 100.0 %
     Copy CRC 2CF4F057
     Copy OK

No errors occurred

End of status report

Продолжительность: 08:00

Треклист:

[font="Tahoma"]01. Scandal (4:45)
[font="Tahoma"]02. My Life Has Been Saved (3:16)

Код:

Exact Audio Copy V0.99 prebeta 5 from 4. May 2009

EAC extraction logfile from 8. July 2010, 15:57

Queen - Singles Collection 3 / Scandal

Used drive  : Optiarc DVD RW AD-7203S   Adapter: 3  ID: 1

Read mode               : Secure
Utilize accurate stream : Yes
Defeat audio cache      : Yes
Make use of C2 pointers : No

Read offset correction                      : 48
Overread into Lead-In and Lead-Out          : No
Fill up missing offset samples with silence : Yes
Delete leading and trailing silent blocks   : No
Null samples used in CRC calculations       : Yes
Used interface                              : Installed external ASPI interface

Used output format : Internal WAV Routines
Sample format      : 44.100 Hz; 16 Bit; Stereo

TOC of the extracted CD

     Track |   Start  |  Length  | Start sector | End sector
    ---------------------------------------------------------
        1  |  0:00.00 |  4:44.61 |         0    |    21360
        2  |  4:44.61 |  3:15.38 |     21361    |    36023

Range status and errors

Selected range

     Filename E:\Audio in lossless\$ QUEEN $\Queen © 2010 - Singles Collection 3 (13CD's)\13-1989 ''Scandal''\Queen - Singles Collection 3 - Scandal.wav

     Peak level 99.1 %
     Range quality 100.0 %
     Copy CRC 973F5C11
     Copy OK

No errors occurred

End of status report

Продолжительность: 02:05:09
Продолжительность: 07:14

Треклист:

[font="Tahoma"]01. The Miracle (0:05:03.25)
[font="Tahoma"]02. Stone Cold Crazy (Live) (0:02:10.29)

Код:

Exact Audio Copy V1.0 beta 1 from 15. November 2010

EAC extraction logfile from 21. January 2011, 18:57

Queen / Singles Collection 4: The Miracle

Used drive  : ASUS    DRW-24B3ST   Adapter: 1  ID: 0

Read mode               : Secure
Utilize accurate stream : Yes
Defeat audio cache      : Yes
Make use of C2 pointers : No

Read offset correction                      : 6
Overread into Lead-In and Lead-Out          : No
Fill up missing offset samples with silence : Yes
Delete leading and trailing silent blocks   : No
Null samples used in CRC calculations       : Yes
Used interface                              : Native Win32 interface for Win NT & 2000

Used output format : Internal WAV Routines
Sample format      : 44.100 Hz; 16 Bit; Stereo

TOC of the extracted CD

     Track |   Start  |  Length  | Start sector | End sector
    ---------------------------------------------------------
        1  |  0:00.00 |  5:03.25 |         0    |    22749
        2  |  5:03.25 |  2:10.29 |     22750    |    32528

Range status and errors

Selected range

     Filename E:\Audio in lossless\$ QUEEN $\Queen © 2010 - Singles Collection 4 (13CD's)\01-1989 ''The Miracle''\Queen - Singles Collection 4- The Miracle.wav

     Peak level 97.9 %
     Extraction speed 1.5 X
     Range quality 100.0 %
     Test CRC EEC4E2E5
     Copy CRC EEC4E2E5
     Copy OK

No errors occurred

AccurateRip summary

Track  1  accurately ripped (confidence 1)  [C62BD642]
Track  2  accurately ripped (confidence 1)  [3AD4A7E6]

All tracks accurately ripped

End of status report

Продолжительность: 10:11

Треклист:

[font="Tahoma"]01. Innuendo (06:33)
[font="Tahoma"]02. Bijou (03:37)

Код:

Exact Audio Copy V1.0 beta 1 from 15. November 2010

EAC extraction logfile from 21. January 2011, 19:08

Queen / Singles Collection 4: Innuendo

Used drive  : ASUS    DRW-24B3ST   Adapter: 1  ID: 0

Read mode               : Secure
Utilize accurate stream : Yes
Defeat audio cache      : Yes
Make use of C2 pointers : No

Read offset correction                      : 6
Overread into Lead-In and Lead-Out          : No
Fill up missing offset samples with silence : Yes
Delete leading and trailing silent blocks   : No
Null samples used in CRC calculations       : Yes
Used interface                              : Native Win32 interface for Win NT & 2000

Used output format : Internal WAV Routines
Sample format      : 44.100 Hz; 16 Bit; Stereo

TOC of the extracted CD

     Track |   Start  |  Length  | Start sector | End sector
    ---------------------------------------------------------
        1  |  0:00.00 |  6:33.32 |         0    |    29506
        2  |  6:33.32 |  3:37.19 |     29507    |    45800

Range status and errors

Selected range

     Filename E:\Audio in lossless\$ QUEEN $\Queen © 2010 - Singles Collection 4 (13CD's)\02-1991 ''Innuendo''\Queen - Singles Collection 4- Innuendo.wav

     Peak level 100.0 %
     Extraction speed 1.7 X
     Range quality 100.0 %
     Test CRC 4D17FBD9
     Copy CRC 4D17FBD9
     Copy OK

No errors occurred

AccurateRip summary

Track  1  not present in database
Track  2  not present in database

None of the tracks are present in the AccurateRip database

End of status report

Продолжительность: 09:22

Треклист:

[font="Tahoma"]01. I’m Going Slightly Mad (04:25)
[font="Tahoma"]02. The Hitman (04:57)
[font="Tahoma"]03. Queen - Singles Collection 4- I’m Going Slightly Mad (9:22)

Код:

Exact Audio Copy V1.0 beta 1 from 15. November 2010

EAC extraction logfile from 21. January 2011, 19:16

Queen / Singles Collection 4: I’m Going Slightly Mad

Used drive  : ASUS    DRW-24B3ST   Adapter: 1  ID: 0

Read mode               : Secure
Utilize accurate stream : Yes
Defeat audio cache      : Yes
Make use of C2 pointers : No

Read offset correction                      : 6
Overread into Lead-In and Lead-Out          : No
Fill up missing offset samples with silence : Yes
Delete leading and trailing silent blocks   : No
Null samples used in CRC calculations       : Yes
Used interface                              : Native Win32 interface for Win NT & 2000

Used output format : Internal WAV Routines
Sample format      : 44.100 Hz; 16 Bit; Stereo

TOC of the extracted CD

     Track |   Start  |  Length  | Start sector | End sector
    ---------------------------------------------------------
        1  |  0:00.00 |  4:25.21 |         0    |    19895
        2  |  4:25.21 |  4:57.07 |     19896    |    42177

Range status and errors

Selected range

     Filename E:\Audio in lossless\$ QUEEN $\Queen © 2010 - Singles Collection 4 (13CD's)\03-1991 ''I’m Going Slightly Mad''\Queen - Singles Collection 4- I’m Going Slightly Mad.wav

     Peak level 93.4 %
     Extraction speed 2.8 X
     Range quality 100.0 %
     Test CRC 3EED1AB1
     Copy CRC 3EED1AB1
     Copy OK

No errors occurred

AccurateRip summary

Track  1  not present in database
Track  2  not present in database

None of the tracks are present in the AccurateRip database

End of status report

Продолжительность: 08:57

[font="Tahoma"]01. Headlong (04:35)
[font="Tahoma"]02. All God’s People (04:21)

Код:

Exact Audio Copy V1.0 beta 1 from 15. November 2010

EAC extraction logfile from 21. January 2011, 19:27

Queen / Singles Collection 4: Headlong

Used drive  : ASUS    DRW-24B3ST   Adapter: 1  ID: 0

Read mode               : Secure
Utilize accurate stream : Yes
Defeat audio cache      : Yes
Make use of C2 pointers : No

Read offset correction                      : 6
Overread into Lead-In and Lead-Out          : No
Fill up missing offset samples with silence : Yes
Delete leading and trailing silent blocks   : No
Null samples used in CRC calculations       : Yes
Used interface                              : Native Win32 interface for Win NT & 2000

Used output format : Internal WAV Routines
Sample format      : 44.100 Hz; 16 Bit; Stereo

TOC of the extracted CD

     Track |   Start  |  Length  | Start sector | End sector
    ---------------------------------------------------------
        1  |  0:00.00 |  4:35.35 |         0    |    20659
        2  |  4:35.35 |  4:21.73 |     20660    |    40307

Range status and errors

Selected range

     Filename E:\Audio in lossless\$ QUEEN $\Queen © 2010 - Singles Collection 4 (13CD's)\04-1991 ''Headlong''\Queen - Singles Collection 4- Headlong.wav

     Peak level 95.3 %
     Extraction speed 2.6 X
     Range quality 100.0 %
     Test CRC B9435BE3
     Copy CRC B9435BE3
     Copy OK

No errors occurred

AccurateRip summary

Track  1  not present in database
Track  2  not present in database

None of the tracks are present in the AccurateRip database

End of status report

Продолжительность: 06:16

[font="Tahoma"]01. The Show Must Go On(04:32)
[font="Tahoma"]02. Queen Talks(01:43)

Код:

Exact Audio Copy V1.0 beta 1 from 15. November 2010

EAC extraction logfile from 21. January 2011, 19:35

Queen /  Singles Collection 4: The Show Must Go On

Used drive  : ASUS    DRW-24B3ST   Adapter: 1  ID: 0

Read mode               : Secure
Utilize accurate stream : Yes
Defeat audio cache      : Yes
Make use of C2 pointers : No

Read offset correction                      : 6
Overread into Lead-In and Lead-Out          : No
Fill up missing offset samples with silence : Yes
Delete leading and trailing silent blocks   : No
Null samples used in CRC calculations       : Yes
Used interface                              : Native Win32 interface for Win NT & 2000

Used output format : Internal WAV Routines
Sample format      : 44.100 Hz; 16 Bit; Stereo

TOC of the extracted CD

     Track |   Start  |  Length  | Start sector | End sector
    ---------------------------------------------------------
        1  |  0:00.00 |  4:32.20 |         0    |    20419
        2  |  4:32.20 |  1:43.55 |     20420    |    28199

Range status and errors

Selected range

     Filename E:\Audio in lossless\$ QUEEN $\Queen © 2010 - Singles Collection 4 (13CD's)\05-1991 ''The Show Must Go On''\Queen -  Singles Collection 4- The Show Must Go On.wav

     Peak level 95.0 %
     Extraction speed 1.4 X
     Range quality 100.0 %
     Test CRC CF8FA6F7
     Copy CRC CF8FA6F7
     Copy OK

No errors occurred

AccurateRip summary

Track  1  not present in database
Track  2  not present in database

None of the tracks are present in the AccurateRip database

End of status report

Продолжительность: 10:13

[font="Tahoma"]01. Bohemian Rhapsody (05:57)
[font="Tahoma"]02. These Are The Days Of Our Lives (04:15)

Код:

Exact Audio Copy V1.0 beta 1 from 15. November 2010

EAC extraction logfile from 21. January 2011, 19:44

Queen / Singles Collection 4: Bohemian Rhapsody

Used drive  : ASUS    DRW-24B3ST   Adapter: 1  ID: 0

Read mode               : Secure
Utilize accurate stream : Yes
Defeat audio cache      : Yes
Make use of C2 pointers : No

Read offset correction                      : 6
Overread into Lead-In and Lead-Out          : No
Fill up missing offset samples with silence : Yes
Delete leading and trailing silent blocks   : No
Null samples used in CRC calculations       : Yes
Used interface                              : Native Win32 interface for Win NT & 2000

Used output format : Internal WAV Routines
Sample format      : 44.100 Hz; 16 Bit; Stereo

TOC of the extracted CD

     Track |   Start  |  Length  | Start sector | End sector
    ---------------------------------------------------------
        1  |  0:00.00 |  5:57.04 |         0    |    26778
        2  |  5:57.04 |  4:15.36 |     26779    |    45939

Range status and errors

Selected range

     Filename E:\Audio in lossless\$ QUEEN $\Queen © 2010 - Singles Collection 4 (13CD's)\06-1991 ''Bohemian Rhapsody''\Queen - Singles Collection 4- Bohemian Rhapsody.wav

     Peak level 91.2 %
     Extraction speed 2.3 X
     Range quality 100.0 %
     Test CRC 4386FDB6
     Copy CRC 4386FDB6
     Copy OK

No errors occurred

AccurateRip summary

Track  1  accurately ripped (confidence 1)  [C4F5FF7B]
Track  2  not present in database

1 track(s) accurately ripped
1 track(s) not present in the AccurateRip database

Some tracks could not be verified as accurate

End of status report

Продолжительность: 11:50

[font="Tahoma"]01. Let Me Live (04:47)
[font="Tahoma"]02. We Will Rock You (Live) (02:56)
[font="Tahoma"]03. We Are The Champions (Live) (04:04)

Код:

Exact Audio Copy V1.0 beta 1 from 15. November 2010

EAC extraction logfile from 21. January 2011, 19:56

Queen / Singles Collection 4: Let Me Live

Used drive  : ASUS    DRW-24B3ST   Adapter: 1  ID: 0

Read mode               : Secure
Utilize accurate stream : Yes
Defeat audio cache      : Yes
Make use of C2 pointers : No

Read offset correction                      : 6
Overread into Lead-In and Lead-Out          : No
Fill up missing offset samples with silence : Yes
Delete leading and trailing silent blocks   : No
Null samples used in CRC calculations       : Yes
Used interface                              : Native Win32 interface for Win NT & 2000

Used output format : Internal WAV Routines
Sample format      : 44.100 Hz; 16 Bit; Stereo

TOC of the extracted CD

     Track |   Start  |  Length  | Start sector | End sector
    ---------------------------------------------------------
        1  |  0:00.00 |  4:47.72 |         0    |    21596
        2  |  4:47.72 |  2:56.65 |     21597    |    34861
        3  |  7:44.62 |  4:04.55 |     34862    |    53216

Range status and errors

Selected range

     Filename E:\Audio in lossless\$ QUEEN $\Queen © 2010 - Singles Collection 4 (13CD's)\07-1992 ''Let Me Live''\Queen - Singles Collection 4- Let Me Live.wav

     Peak level 98.0 %
     Extraction speed 1.9 X
     Range quality 100.0 %
     Test CRC 24AA4ECB
     Copy CRC 24AA4ECB
     Copy OK

No errors occurred

AccurateRip summary

Track  1  not present in database
Track  2  not present in database
Track  3  not present in database

None of the tracks are present in the AccurateRip database

End of status report

Продолжительность: 08:44

[font="Tahoma"]01. Heaven For Everyone (Single Version) (04:46)
[font="Tahoma"]02. It’s A Beautiful Day (03:58)

Код:

Exact Audio Copy V1.0 beta 1 from 15. November 2010

EAC extraction logfile from 21. January 2011, 20:05

Queen / Singles Collection 4: Heaven For Everyone

Used drive  : ASUS    DRW-24B3ST   Adapter: 1  ID: 0

Read mode               : Secure
Utilize accurate stream : Yes
Defeat audio cache      : Yes
Make use of C2 pointers : No

Read offset correction                      : 6
Overread into Lead-In and Lead-Out          : No
Fill up missing offset samples with silence : Yes
Delete leading and trailing silent blocks   : No
Null samples used in CRC calculations       : Yes
Used interface                              : Native Win32 interface for Win NT & 2000

Used output format : Internal WAV Routines
Sample format      : 44.100 Hz; 16 Bit; Stereo

TOC of the extracted CD

     Track |   Start  |  Length  | Start sector | End sector
    ---------------------------------------------------------
        1  |  0:00.00 |  4:46.00 |         0    |    21449
        2  |  4:46.00 |  3:58.22 |     21450    |    39321

Range status and errors

Selected range

     Filename E:\Audio in lossless\$ QUEEN $\Queen © 2010 - Singles Collection 4 (13CD's)\08-1995 ''Heaven For Everyone''\Queen - Singles Collection 4- Heaven For Everyone.wav

     Peak level 83.4 %
     Extraction speed 2.4 X
     Range quality 100.0 %
     Test CRC 4EDCF289
     Copy CRC 4EDCF289
     Copy OK

No errors occurred

AccurateRip summary

Track  1  not present in database
Track  2  not present in database

None of the tracks are present in the AccurateRip database

End of status report

Продолжительность: 08:29

[font="Tahoma"]01. A Winter’s Tale (3:53.53)
[font="Tahoma"]02. Rock In Rio Blues([4:35.06)

Код:

Exact Audio Copy V1.0 beta 1 from 15. November 2010

EAC extraction logfile from 21. January 2011, 20:20

Queen / Singles Collection 4: A Winter’s Tale

Used drive  : ASUS    DRW-24B3ST   Adapter: 1  ID: 0

Read mode               : Secure
Utilize accurate stream : Yes
Defeat audio cache      : Yes
Make use of C2 pointers : No

Read offset correction                      : 6
Overread into Lead-In and Lead-Out          : No
Fill up missing offset samples with silence : Yes
Delete leading and trailing silent blocks   : No
Null samples used in CRC calculations       : Yes
Used interface                              : Native Win32 interface for Win NT & 2000

Used output format : Internal WAV Routines
Sample format      : 44.100 Hz; 16 Bit; Stereo

TOC of the extracted CD

     Track |   Start  |  Length  | Start sector | End sector
    ---------------------------------------------------------
        1  |  0:00.00 |  3:53.53 |         0    |    17527
        2  |  3:53.53 |  4:35.06 |     17528    |    38158

Range status and errors

Selected range

     Filename E:\Audio in lossless\$ QUEEN $\Queen © 2010 - Singles Collection 4 (13CD's)\09-1995 ''A Winter’s Tale''\Queen - Singles Collection 4- A Winter’s Tale.wav

     Peak level 99.2 %
     Extraction speed 2.9 X
     Range quality 100.0 %
     Test CRC 9C2F54A1
     Copy CRC 9C2F54A1
     Copy OK

No errors occurred

AccurateRip summary

Track  1  not present in database
Track  2  not present in database

None of the tracks are present in the AccurateRip database

End of status report

Продолжительность: 09:14

[font="Tahoma"]01. Too Much Love Will Kill You (04:22)
[font="Tahoma"]02. I Was Born To Love You (04:51)

Код:

Exact Audio Copy V1.0 beta 1 from 15. November 2010

EAC extraction logfile from 21. January 2011, 20:28

Queen / Singles Collection 4: Too Much Love Will Kill You

Used drive  : ASUS    DRW-24B3ST   Adapter: 1  ID: 0

Read mode               : Secure
Utilize accurate stream : Yes
Defeat audio cache      : Yes
Make use of C2 pointers : No

Read offset correction                      : 6
Overread into Lead-In and Lead-Out          : No
Fill up missing offset samples with silence : Yes
Delete leading and trailing silent blocks   : No
Null samples used in CRC calculations       : Yes
Used interface                              : Native Win32 interface for Win NT & 2000

Used output format : Internal WAV Routines
Sample format      : 44.100 Hz; 16 Bit; Stereo

TOC of the extracted CD

     Track |   Start  |  Length  | Start sector | End sector
    ---------------------------------------------------------
        1  |  0:00.00 |  4:22.16 |         0    |    19665
        2  |  4:22.16 |  4:51.33 |     19666    |    41523

Range status and errors

Selected range

     Filename E:\Audio in lossless\$ QUEEN $\Queen © 2010 - Singles Collection 4 (13CD's)\10-1996 ''Too Much Love Will Kill You''\Queen - Singles Collection 4- Too Much Love Will Kill You.wav

     Peak level 89.2 %
     Extraction speed 2.8 X
     Range quality 100.0 %
     Test CRC 7D91B2AF
     Copy CRC 7D91B2AF
     Copy OK

No errors occurred

AccurateRip summary

Track  1  not present in database
Track  2  not present in database

None of the tracks are present in the AccurateRip database

End of status report

Продолжительность: 09:21

[font="Tahoma"]01. You Don’t Fool Me (Edit) (03:56)
[font="Tahoma"]02. You Don’t Fool Me (Album Version) (05:24)

Код:

Exact Audio Copy V1.0 beta 1 from 15. November 2010

EAC extraction logfile from 21. January 2011, 20:36

Queen / Singles Collection 4: You Don’t Fool Me

Used drive  : ASUS    DRW-24B3ST   Adapter: 1  ID: 0

Read mode               : Secure
Utilize accurate stream : Yes
Defeat audio cache      : Yes
Make use of C2 pointers : No

Read offset correction                      : 6
Overread into Lead-In and Lead-Out          : No
Fill up missing offset samples with silence : Yes
Delete leading and trailing silent blocks   : No
Null samples used in CRC calculations       : Yes
Used interface                              : Native Win32 interface for Win NT & 2000

Used output format : Internal WAV Routines
Sample format      : 44.100 Hz; 16 Bit; Stereo

TOC of the extracted CD

     Track |   Start  |  Length  | Start sector | End sector
    ---------------------------------------------------------
        1  |  0:00.00 |  3:56.11 |         0    |    17710
        2  |  3:56.11 |  5:24.35 |     17711    |    42045

Range status and errors

Selected range

     Filename E:\Audio in lossless\$ QUEEN $\Queen © 2010 - Singles Collection 4 (13CD's)\11-1996 ''You Don’t Fool Me''\Queen - Singles Collection 4- You Don’t Fool Me.wav

     Peak level 99.2 %
     Extraction speed 3.1 X
     Range quality 100.0 %
     Test CRC 2DA898DB
     Copy CRC 2DA898DB
     Copy OK

No errors occurred

AccurateRip summary

Track  1  not present in database
Track  2  not present in database

None of the tracks are present in the AccurateRip database

End of status report

Продолжительность: 13:19

[font="Tahoma"]01. No-One But You (Only The Good Die Young) [04:14)
[font="Tahoma"]02. We Will Rock You (The Rick Rubin ‘Ruined’ Remix) (05:02)
[font="Tahoma"]03. The Prize (Instrumental Remix for ‘The Eye’) (04:02)

Код:

Exact Audio Copy V1.0 beta 1 from 15. November 2010

EAC extraction logfile from 21. January 2011, 20:47

Queen / Singles Collection 4: No-One But You

Used drive  : ASUS    DRW-24B3ST   Adapter: 1  ID: 0

Read mode               : Secure
Utilize accurate stream : Yes
Defeat audio cache      : Yes
Make use of C2 pointers : No

Read offset correction                      : 6
Overread into Lead-In and Lead-Out          : No
Fill up missing offset samples with silence : Yes
Delete leading and trailing silent blocks   : No
Null samples used in CRC calculations       : Yes
Used interface                              : Native Win32 interface for Win NT & 2000

Used output format : Internal WAV Routines
Sample format      : 44.100 Hz; 16 Bit; Stereo

TOC of the extracted CD

     Track |   Start  |  Length  | Start sector | End sector
    ---------------------------------------------------------
        1  |  0:00.00 |  4:14.38 |         0    |    19087
        2  |  4:14.38 |  5:02.22 |     19088    |    41759
        3  |  9:16.60 |  4:02.26 |     41760    |    59935

Range status and errors

Selected range

     Filename E:\Audio in lossless\$ QUEEN $\Queen © 2010 - Singles Collection 4 (13CD's)\12-1998 ''No-One But You''\Queen - Singles Collection 4- No-One But You.wav

     Peak level 98.1 %
     Extraction speed 1.7 X
     Range quality 100.0 %
     Test CRC B927BF63
     Copy CRC B927BF63
     Copy OK

No errors occurred

AccurateRip summary

Track  1  not present in database
Track  2  not present in database
Track  3  not present in database

None of the tracks are present in the AccurateRip database

End of status report

Продолжительность: 12:01

[font="Tahoma"]01. Under Pressure Rah Mix (Radio Edit) (03:48)
[font="Tahoma"]02. Under Pressure (Mike Spencer Remix) (03:55)
[font="Tahoma"]03. Under Pressure (Live At Knebworth) (04:17)

Код:

Exact Audio Copy V1.0 beta 1 from 15. November 2010

EAC extraction logfile from 21. January 2011, 20:55

Queen / Singles Collection 4: Under Pressure

Used drive  : ASUS    DRW-24B3ST   Adapter: 1  ID: 0

Read mode               : Secure
Utilize accurate stream : Yes
Defeat audio cache      : Yes
Make use of C2 pointers : No

Read offset correction                      : 6
Overread into Lead-In and Lead-Out          : No
Fill up missing offset samples with silence : Yes
Delete leading and trailing silent blocks   : No
Null samples used in CRC calculations       : Yes
Used interface                              : Native Win32 interface for Win NT & 2000

Used output format : Internal WAV Routines
Sample format      : 44.100 Hz; 16 Bit; Stereo

TOC of the extracted CD

     Track |   Start  |  Length  | Start sector | End sector
    ---------------------------------------------------------
        1  |  0:00.00 |  3:48.12 |         0    |    17111
        2  |  3:48.12 |  3:55.08 |     17112    |    34744
        3  |  7:43.20 |  4:17.66 |     34745    |    54085

Range status and errors

Selected range

     Filename E:\Audio in lossless\$ QUEEN $\Queen © 2010 - Singles Collection 4 (13CD's)\13-1999 ''Under Pressure''\Queen - Singles Collection 4- Under Pressure.wav

     Peak level 89.0 %
     Extraction speed 1.8 X
     Range quality 100.0 %
     Test CRC C831AE6C
     Copy CRC C831AE6C
     Copy OK

No errors occurred

AccurateRip summary

Track  1  not present in database
Track  2  not present in database
Track  3  not present in database

None of the tracks are present in the AccurateRip database

End of status report

pb.wtf



Скачать через торрент http://pic.kartinco.top/images/2011/gud3z8ortf.jpg Скачать фильм через торрент бесплантно в хорошем качестве Треклист:[font="Tahoma"] Keep Yourself Alive (3:49)[font="Tahoma"] Son And Daughter ... 10 10 2
Info! Золотая раздача, скачанное не засчитывается.
Торрент: Зарегистрирован [2012-01-22 08:48] · скачан: 25 раз
Статус: √ проверено
Размер: 3 GB
Как cкачать? Как скачать через торрент | qTorrent

% Раздел Тема Автор DL S | L
Classic Rock & Hard Rock (lossless) [ 2.68 GB ] EVANESCENCE Дискография - 1998-2007 FLAC lossless ser_1985 Скачать
1 | 0
Eurodance, Technopop, Disco (lossless) [ 1.86 GB ] Dr. Alban Студийные альбомы - 5CD [FLAC lossless] tauras Скачать
1 | 0
Action FPS (1st Person) [ 8.89 GB ] Star Wars: The Force Unleashed - Ultimate Sith Edition [Lossless Repack RU/EN] от Druid =Чувак= Скачать
1 | 0
Архив (Alternative, Punk, Independent) [ 1.74 GB ] Breaking Benjamin - Дискография - 2001-2009 FLAC lossless King_IS_Back Скачать
1 | 0
Гоночные симуляторы [ 3.18 GB ] Дальнобойщик​и 3: Золотое Издание [Lossless Repack RU] от R.G. Catalyst roman3310i Скачать
1 | 0
Архив (Многоканальная музыка и собственные оцифровки) [ 405 MB ] Black Sabbath -Heaven & hell - 1980 DTS lossless staryirocker Скачать
1 | 0
RTS (стратегии в реальном времени) [ 4.21 GB ] Command & Conquer 4: Tiberian Twilight [Lossless RePackRUEA] Alex_Zeyn Скачать
3 | 0


Последний раз редактировалось: cataman (2012-01-22 08:48), всего редактировалось 3 раз(а)

28-11-2019 20:33  

Отключить всю рекламу на сайте

22-01-2012 07:33 Скачать торрент  

Торент-файл ерезалит в связи с ошибкой, просьба скачать его заново!pb.wtf



    Дорогой пользователь! Огромная просьба, поблагодарите релизера, оцените раздачу и оставьте свои комментарий, если Вы скачали через торрент бесплатно! Внесите свою лепту в развитие PiratBit!
    Комментировать посты могут только пользователи прошедшие не сложную регистрацию
    Показать сообщения:    

    через торрент
    Скачать бесплатно
    скачать торрент
    смотреть онлайн
    Cкачать фильм бесплатно
    скачать торрент в хорошем качестве
    смотреть онлайн бесплатно в хорошем качестве


    Вы не можете начинать темы
    Вы не можете отвечать на сообщения
    Вы не можете редактировать свои сообщения
    Вы не можете удалять свои сообщения
    Вы не можете голосовать в опросах
    Вы не можете прикреплять файлы к сообщениям
    Вы можете скачивать файлы