1 сезон

3 сезон

iTunes

1

iTunes

MVO

iTunes

13

1 сезон

RePack

30

Deluxe

pack

Лицензия

ВАЖНО

ИГРА 18+

pack

RePack

MK11

RePack

jed

RePack

fifa19

RePack

RDR2

RePack

NEED FOR SPEED™ PAYBACK

4 сезон

9 сезон

Бесстыжие 9 сезон

Все сериалы

все сериалы на PB.wtf

RePack

FAR CRY 5

Anonymous, добрый день, мы катастрофически не успеваем собрать деньги на оплату серверов, помогите нам пожалуйста 5,10,15р., для нас важна любая помощь . В качестве благодарности мы отключим Вам всю рекламу на сайте (укажите свой ник в строку Ваше имя)!

×
  
Magnet ссылка

Опасный квартал / The Son of No One (Дито Монтиель / Dito Montiel) [2011, триллер, драма, криминал, DVD5] R5 «Люксор» pb.wtf

Опасный квартал через торрент pb.wtf

Размер: 3.81 GB | Добавлен: 9 лет 8 мес. назад | Торрент скачан:83 раза
Скачать  

17-11-2011 20:09 Опасный квартал Скачать торрент  


Опасный квартал / The Son of No One
«Serve. Protect. Lie.»
Страна: США
Студия: Hannibal Pictures, Millennium Films, Nu-Image Films, Son Of No One Production, SONO Production
Жанр: триллер, драма, криминал
Год выпуска: 2011
Мировая премьера: 9 июля 2011
Российская премьера: 20 октября 2011, «Люксор»
Дата выхода DVD: 17 ноября 2011, «Люксор»
Продолжительность: 01:30:00
Перевод: Профессиональный (дублированный) [Лицензия]
Cубтитры: нет
Режиссер: Дито Монтиель / Dito Montiel
В ролях: Ченнинг Татум, Аль Пачино, Трэйси Морган, Кэти Холмс, Рэй Лиотта, Жюльет Бинош, Джеймс Рэнсон, Брайан Гилберт, Джэйк Черри, Симона Джой Джонс и др.
Описание: Главный герой — молодой полицейский, приписанный к участку в районе, где в основном проживает рабочий класс. Герой вырос в этом районе, и теперь, когда он вернулся сюда стражем закона, на поверхности оказался некий секрет, который может уничтожить как семью копа, так и его самого.

Бонусы: нет

Релиз группы:
Качество: DVD5 R5
Формат: DVD-Video
Видео кодек: MPEG2
Аудио кодек: AC3
Видео: PAL 16:9 (720x576(0.527)) MPEG Video, 25,000 кадр/сек, 5459 Кбит/сек
Аудио: Russian (Dolby AC3, 6 ch) 448 Кбит/сек, 48,0 КГц



Title:
Size: 3.81 Gb ( 3 995 828 KBytes ) - DVD-5
Enabled regions: 1, 2, 3, 4, 5, 6, 7, 8

VTS_01 :
Play Length: 00:00:19
Video: PAL 4:3 (720x576) VBR
Audio:
Russian (Dolby AC3, 2 ch)

VTS_02 :
Play Length: 01:30:00
Video: PAL 16:9 (720x576) VBR, Auto Pan&Scan
Audio:
Russian (Dolby AC3, 6 ch)

Menu Video:
PAL 4:3 (720x576) VBR
Menu English Language Unit :
Root Menu
Chapter (PTT) Menu
Общее
Полное имя : G:\Новинки 2011\Opasnyj.kvartal.2011.DVD5\VIDEO_TS\VTS_02_2.VOB
Формат : MPEG-PS
Размер файла : 1024 Мбайт
Продолжительность : 23 м.
Общий поток : 6027 Кбит/сек

Видео
Идентификатор : 224 (0xE0)
Формат : MPEG Video
Версия формата : Version 2
Профиль формата : Main@Main
Параметр BVOP формата : Да
Параметр матрицы формата : Выборочная
Параметр GOP формата : M=3, N=15
Продолжительность : 23 м.
Вид битрейта : Переменный
Битрейт : 5459 Кбит/сек
Максимальный битрейт : 9800 Кбит/сек
Ширина : 720 пикселей
Высота : 576 пикселей
Соотношение сторон : 16:9
Частота кадров : 25,000 кадров/сек
Стандарт вещания : PAL
Цветовое пространство : YUV
Субдискретизация насыщенности : 4:2:0
Битовая глубина : 8 бит
Тип развёртки : Чересстрочная
Порядок развёртки : Верхнее поле первое
Метод сжатия : С потерями
Бит/(Пиксели*Кадры) : 0.527
Размер потока : 927 Мбайт (91%)

Аудио
Идентификатор : 189 (0xBD)-128 (0x80)
Формат : AC-3
Формат/Информация : Audio Coding 3
Расширение режима : CM (complete main)
Режим смешивания : DVD-Video
Продолжительность : 23 м.
Вид битрейта : Постоянный
Битрейт : 448 Кбит/сек
Каналы : 6 каналов
Расположение каналов : Front: L C R, Side: L R, LFE
Частота : 48,0 КГц
Битовая глубина : 16 бит
Метод сжатия : С потерями
Задержка видео : -768 мс.
Размер потока : 76,1 Мбайт (7%)










pb.wtf



Скачать Опасный квартал через торрент http://i1.imageban.ru/out/2011/11/17/f14e35137353e26d7054b10b02a92ae0.jpg Скачать фильм Опасный квартал через торрент бесплантно в хорошем качестве Описание: Главный герой — молодой полицейский, приписанный к участку в районе, где в основном проживает рабочий класс. Герой вырос в этом ... 4.9 10 7
Info! Золотая раздача, скачанное не засчитывается.
Торрент: Зарегистрирован [2011-11-17 20:09] · скачан: 83 раз
Статус: √ проверено
Размер: 3.81 GB
Как cкачать? Как скачать Опасный квартал через торрент | UTorrent

28-11-2019 20:33  

Отключить всю рекламу на сайте

    Дорогой пользователь! Огромная просьба, поблагодарите релизера, оцените раздачу и оставьте свои комментарий, если Вы скачали Опасный квартал через торрент бесплатно! Внесите свою лепту в развитие PiratBit!
    Комментировать посты могут только пользователи прошедшие не сложную регистрацию
    Показать сообщения:    

    Опасный квартал через торрент
    Скачать бесплатно Опасный квартал
    Опасный квартал скачать торрент
    Опасный квартал смотреть онлайн
    Cкачать фильм Опасный квартал бесплатно
    Опасный квартал скачать торрент в хорошем качестве
    Опасный квартал смотреть онлайн бесплатно в хорошем качестве


    Вы не можете начинать темы
    Вы не можете отвечать на сообщения
    Вы не можете редактировать свои сообщения
    Вы не можете удалять свои сообщения
    Вы не можете голосовать в опросах
    Вы не можете прикреплять файлы к сообщениям
    Вы можете скачивать файлы