Ссылка на приватное зеркало нашего сайта всего за 1$. Внимание количество ограничено!!!

2 сезон

iTunes

1 сезон

1

iTunes

iTunes

iTunes

1 сезон

RePack

30

ИГРА 18+

pack

ВАЖНО

!!Акция!!

Alien_RageХит недели

RePack

MK11
pack

Забери бонус

RePack

jed

!!Акция!!

Alien_Rage

RePack

fifa19

RePack

Assassins Creed: Odyssey

RePack

NEED FOR SPEED™ PAYBACK

4 сезон

9 сезон

Бесстыжие 9 сезон

Все сериалы

все сериалы на PB.wtf

RePack

FAR CRY 5
  

Особо тяжкие преступления / High Crimes (Карл Франклин) [2002 г., триллер, драма, криминал, детектив, BDRip (720p)] pb.wtf

Особо тяжкие преступления через торрент pb.wtf

Размер: 4.37 GB | Добавлен: 8 лет 11 мес. назад | Торрент скачан:110 раз
Скачать  

19-11-2011 19:52 Особо тяжкие преступления Скачать торрент  

Особо тяжкие преступления / High Crimes

Год выпуска: 2002
Страна: США
Жанр: триллер, драма, криминал, детектив
Продолжительность: 01:55:13
Перевод: Профессиональный (полное дублирование) + Оригинальная дорожка (Английский)

Режиссер: Карл Франклин
Сценарий: Юрий Зельцер, Грейс Кэри Бикли, Джозеф Финдер

Бюджет: $42 000 000
Премьера в мире: 3 апреля 2002



В ролях: Эшли Джадд, Морган Фриман, Джеймс Кэвизел, Адам Скотт, Аманда Пит, Брюс Дэвисон, Том Бауэр, Хуан Карлос Эрнандез, Майкл Гэстон, Джуд Чикколелла ...

Описание: Успешный адвокат Клэр Кубик (Эшли Джадд) живет со своим мужем Томом (Джеймс Кэвизел). После неудавшейся попытки грабежа их дома к ним обращается ФБР и арестовывает её мужа. Его под прежним именем Рональда Чапмэна обвиняют в убийстве гражданских сальвадорцев в 1988 году. Чапмэн служил в морской пехоте США и был в бегах в течение двенадцати лет.

Том признает свою причастность к операции, которая привела к убийствам гражданских жителей, в которых его обвиняют. Однако, он утверждает, что он невинен, и он был сделан козлом отпущения, потому что только он мог опознать тех, кто действительно совершил убийства.

Клэр готова защитить ее мужа в военном суде. Ей помогает Чарли Граймс (Морган Фримен), бывший военный адвокат, имеющий недовольство против военного руководства. Случайно они начинают раскрывать прикрытие, сделанное одним из офицеров самого высокого ранга. Ключевые свидетели умерли. А карьера Клэр и даже ее жизнь находятся в опасности.

Фильм основанный на романе Джозефа Файндера.

Качество: BDRip (720p)
Формат: MKV
Видео кодек: H.26x
Аудио кодек: AC3
Видео: 1280x548 (2,35:1), 23,976 fps, 4535 kbps, 0.270 bit/pixel
Аудио #1: 48 kHz, 16-bit, AC3 5.1, 448.00 kbps (Дубляж)
Аудио #2: 48 kHz, 16-bit, AC3 5.1, 448.00 kbps (Английский)
Субтитры: вшитые отключаемые - Русский (SRT)

rip by mimigen
Полное имя : D:\High Crimes.2002.HQBDRip.720p.PT.mkv
Формат : Matroska
Размер файла : 4,37 Гбайт
Продолжительность : 1 ч. 55 м.
Общий поток : 5431 Кбит/сек
Название фильма : High Crimes (rip by mimigen)
Дата кодирования : UTC 2011-11-16 18:00:08
Программа кодирования : mkvmerge v4.0.0 ('The Stars were mine') сборка от Jun 6 2010 16:18:42
Библиотека кодирования : libebml v1.0.0 + libmatroska v1.0.0

Видео
Идентификатор : 1
Формат : AVC
Формат/Информация : Advanced Video Codec
Профиль формата : High@L4.1
Параметр CABAC формата : Да
Параметр ReFrames формата : 9 кадров
Параметры GOP формата : M=1, N=24
Идентификатор кодека : V_MPEG4/ISO/AVC
Продолжительность : 1 ч. 55 м.
Битрейт : 4535 Кбит/сек
Ширина : 1280 пикс.
Высота : 548 пикс.
Соотношение сторон : 2,35:1
Частота кадров : 23,976 кадр/сек
Цветовое пространство : YUV
Подвыборка цветности : 4:2:0
Битовая глубина : 8 бит
Тип развёртки : Прогрессивная
Бит/(Пиксели*Кадры) : 0.270
Размер потока : 3,56 Гбайт (82%)
Библиотека кодирования : x264 core 116 r2074 2641b9e
Настройки программы : cabac=1 / ref=10 / deblock=1:-3:-3 / analyse=0x3:0x113 / me=esa / subme=9 / psy=1 / psy_rd=1.00:0.00 / mixed_ref=1 / me_range=32 / chroma_me=1 / trellis=2 / 8x8dct=1 / cqm=0 / deadzone=21,11 / fast_pskip=0 / chroma_qp_offset=-2 / threads=4 / sliced_threads=0 / slices=4 / nr=0 / decimate=0 / interlaced=0 / bluray_compat=0 / constrained_intra=0 / bframes=8 / b_pyramid=1 / b_adapt=2 / b_bias=0 / direct=3 / weightb=1 / open_gop=0 / weightp=0 / keyint=24 / keyint_min=2 / scenecut=40 / intra_refresh=0 / rc_lookahead=24 / rc=2pass / mbtree=1 / bitrate=4535 / ratetol=1.0 / qcomp=0.60 / qpmin=10 / qpmax=51 / qpstep=4 / cplxblur=20.0 / qblur=0.5 / ip_ratio=1.40 / aq=2:1.00
Язык : English

Аудио #1
Идентификатор : 2
Формат : AC-3
Формат/Информация : Audio Coding 3
Расширение режима : CM (complete main)
Идентификатор кодека : A_AC3
Продолжительность : 1 ч. 55 м.
Вид битрейта : Постоянный
Битрейт : 448 Кбит/сек
Каналы : 6 каналов
Расположение каналов : Front: L C R, Side: L R, LFE
Частота : 48,0 КГц
Битовая глубина : 16 бит
Метод сжатия : С потерями
Размер потока : 369 Мбайт (8%)
Заголовок : дубляж
Язык : Russian

Аудио #2
Идентификатор : 3
Формат : AC-3
Формат/Информация : Audio Coding 3
Расширение режима : CM (complete main)
Идентификатор кодека : A_AC3
Продолжительность : 1 ч. 55 м.
Вид битрейта : Постоянный
Битрейт : 448 Кбит/сек
Каналы : 6 каналов
Расположение каналов : Front: L C R, Side: L R, LFE
Частота : 48,0 КГц
Битовая глубина : 16 бит
Метод сжатия : С потерями
Размер потока : 369 Мбайт (8%)
Заголовок : оригинал
Язык : English

Текст
Идентификатор : 4
Формат : UTF-8
Идентификатор кодека : S_TEXT/UTF8
Идентификатор кодека/Информация : UTF-8 Plain Text
Язык : Russian
pb.wtf



Скачать Особо тяжкие преступления через торрент http://lostpic.net/images/f3f49e3e853c665910a677bdc32186c4.jpg Скачать фильм Особо тяжкие преступления через торрент бесплантно в хорошем качестве Описание: Успешный адвокат Клэр Кубик (Эшли Джадд) живет со своим мужем Томом (Джеймс Кэвизел). После неудавшейся попытки грабежа их дома к ... 9.5 10 2
Info! Золотая раздача, скачанное не засчитывается.
Торрент: Зарегистрирован [2011-11-19 19:52] · скачан: 110 раз
Статус: √ проверено
Размер: 4.37 GB
Как cкачать? Как скачать Особо тяжкие преступления через торрент | qTorrent

% Раздел Тема Автор DL S | L
Фильмы [HD 720p, 1080p] (Хороший звук DUB, MVO) [ 16.99 GB ] Особо тяжкие преступления / High Crimes [2002 BDRip 1080p by msltel] DUB MVO DVO 3 x AVO VO msltel Скачать
1 | 0
Фильмы [HD 720p, 1080p] (Хороший звук DUB, MVO) [ 6.75 GB ] Особо тяжкие преступления / High Crimes [2002 BDRip 720p by msltel] DUB MVO DVO 3 x AVO VO msltel Скачать
1 | 0
Фильмы 2001-2005 [ 4.49 GB ] Особо тяжкие преступления / High Crimes [2002 BDRip-AVC by msltel] DUB MVO DVO 3 x AVO VO msltel Скачать
1 | 0
Фильмы [HD 720p, 1080p] (Хороший звук DUB, MVO) [ 8.32 GB ] Особо тяжкие преступления / High Crimes [2002 BDRip 720p от _denis_100 / NNNB] DUB MVO 2xAVO + Original + Sub _denis_100 Скачать
1 | 0
Фильмы с авторской озвучкой [ 1.46 GB ] Особо тяжкие преступления / High Crimes [2002 HDRip Авторский hkets1980 Скачать
1 | 0
Фильмы 2001-2005 [ 1.46 GB ] Особо тяжкие преступления / High Crimes / 2002 / HDRip Dean24 Скачать
1 | 0
Фильмы (Blu-ray, BD-Remux, HDDVD) [ 29.38 GB ] Особо тяжкие преступления / High Crimes [2002 BDRemux 1080p DUB + Оригинал] AlexKa Скачать
1 | 0

28-11-2019 20:33  

Отключить всю рекламу на сайте

19-11-2011 21:58 Особо тяжкие преступления Скачать торрент  

С флешки воспроизводится?pb.wtf



19-11-2011 22:46 Особо тяжкие преступления Скачать торрент  

I/O
Да хоть с чего, было бы на чём смотреть....pb.wtf



20-11-2011 07:11 Особо тяжкие преступления Скачать торрент  

I/O писал(а):

С флешки воспроизводится?

Если у тебя флешка в формате ntfs,на fat32 4 гига одним файлом не запишешьpb.wtf



20-11-2011 17:03 Особо тяжкие преступления Скачать торрент  

vitasmart
.................. флешки и побольше есть pb.wtf



02-01-2012 16:11 Особо тяжкие преступления Скачать торрент  

rulya74 писал(а):

vitasmart
.................. флешки и побольше есть

Не пнимают люди и пишут херь!причем тут размер флешки????!!!! АААААААААААААААА!!!!!!!!! pb.wtf



23-08-2012 12:23 Особо тяжкие преступления Скачать торрент  

норм. фильм :good2:pb.wtf



    Дорогой пользователь! Огромная просьба, поблагодарите релизера, оцените раздачу и оставьте свои комментарий, если Вы скачали Особо тяжкие преступления через торрент бесплатно! Внесите свою лепту в развитие PiratBit!
    Комментировать посты могут только пользователи прошедшие не сложную регистрацию
    Показать сообщения:    

    Особо тяжкие преступления через торрент
    Скачать бесплатно Особо тяжкие преступления
    Особо тяжкие преступления скачать торрент
    Особо тяжкие преступления смотреть онлайн
    Cкачать фильм Особо тяжкие преступления бесплатно
    Особо тяжкие преступления скачать торрент в хорошем качестве
    Особо тяжкие преступления смотреть онлайн бесплатно в хорошем качестве


    Вы не можете начинать темы
    Вы не можете отвечать на сообщения
    Вы не можете редактировать свои сообщения
    Вы не можете удалять свои сообщения
    Вы не можете голосовать в опросах
    Вы не можете прикреплять файлы к сообщениям
    Вы можете скачивать файлы