новый адрес
Ссылка на приватное зеркало всего за 1$. Внимание количество ограничено!!!

iTunes

1+1

iTunes

мы

iTunes

1

iTunes

Чернобыль

iTunes

Ральф против интернета

Лицензия

ПШазам

Лицензия

Оно 2

Лицензия

30
pack

Вам бонус

ВАЖНО

!!Акция!!

Alien_RageХит недели

RePack

Resident Evil 21

ИГРА 18+

pack

RePack

jed

!!Акция!!

Alien_Rage

RePack

fifa19

RePack

Assassins Creed: Odyssey

RePack

NEED FOR SPEED™ PAYBACK

3 сезон

9 сезон

Бесстыжие 9 сезон

Все сериалы

все сериалы на PB.wtf

RePack

FAR CRY 5
Ребята, катастрофически не хватает 1900р. для оплаты серверов за Октябрь (всвязи с блокировками трафик упал в 3 раза), 1-2р., выручайте.
  

Москва слезам не верит (Владимир Меньшов) [1979 г., драма, мелодрама, комедия, BDRip 720p] pb.wtf

Москва слезам не верит через торрент pb.wtf

Размер: 8.33 GB | Добавлен: 8 лет назад | Торрент скачан:251 раз
Скачать  

22-11-2011 15:41 Москва слезам не верит Скачать торрент  

Москва слезам не верит

Год выхода: 1979
Страна: СССР
Жанр: драма, мелодрама, комедия
Продолжительность: 02:28:17
Перевод: оригинал

Режиссер: Владимир Меньшов
В ролях: Вера Алентова, Ирина Муравьёва, Алексей Баталов, Раиса Рязанова, Александр Фатюшин, Борис Сморчков, Виктор Уральский, Валентина Ушакова, Юрий Васильев, Евгения Ханаева

Описание: Москва пятидесятых годов. Три молодые провинциалки приезжают в Москву в поисках того, что ищут люди во всех столицах мира - любви, счастья и достатка. Их судьбы складываются именно так, как предполагает характер каждой из девушек. Антонина выходит замуж, растит детей, любит мужа. Людмиле Москва представляется лотереей, в которой она должна выиграть свое особенное счастье. Катерина же - отчаянно влюбляется, но избранник ее оставляет. Однако она не опускает руки, в одиночку растит дочь и к тому же успевает сделать блестящую карьеру. В сорок лет судьба дарит ей встречу с прекрасным человеком и настоящую любовь...

Качество: BDRip 720p
Формат: MKV
Видео кодек: H.264
Аудио кодек: DTS, AC3
Видео: 944x720 pix, 5891 Kbps, 23.976 fps, High@L4.1
Аудио:
48.0 KHz, DTS, 6 channels, 1510 Kbps
48.0 KHz, AC3, 1 channel, 640 Kbps

Релиз:
General
Unique ID : 177473874615020696034823326094813987408 (0x858439961C340C47996046B481FA8250)
Complete name : F:Москва слезам не верит [BDRip 720p].mkv
Format : Matroska
Format version : Version 2
File size : 8.33 GiB
Duration : 2h 28mn
Overall bit rate : 8 042 Kbps
Encoded date : UTC 2011-11-22 14:21:42
Writing application : mkvmerge v4.9.1 ('Ich will') сборка от Jul 11 2011 23:53:15
Writing library : libebml v1.2.1 + libmatroska v1.1.1

Video
ID : 1
Format : AVC
Format/Info : Advanced Video Codec
Format profile : High L4.1
Format settings, CABAC : Yes
Format settings, ReFrames : 5 frames
Codec ID : V_MPEG4/ISO/AVC
Duration : 2h 28mn
Bit rate : 5 891 Kbps
Width : 944 pixels
Height : 720 pixels
Display aspect ratio : 4:3
Frame rate : 23.976 fps
Color space : YUV
Chroma subsampling : 4:2:0
Bit depth : 8 bits
Scan type : Progressive
Bits/(Pixel*Frame) : 0.361
Stream size : 5.94 GiB (71%)
Title : for freeisland
Writing library : x264 core 116 r2074 2641b9e
Encoding settings : cabac=1 / ref=5 / deblock=1:-1:-1 / analyse=0x3:0x133 / me=hex / subme=8 / psy=1 / psy_rd=1.00:0.15 / mixed_ref=1 / me_range=16 / chroma_me=1 / trellis=1 / 8x8dct=1 / cqm=0 / deadzone=21,11 / fast_pskip=1 / chroma_qp_offset=-3 / threads=4 / sliced_threads=0 / nr=0 / decimate=1 / interlaced=0 / bluray_compat=0 / constrained_intra=0 / bframes=9 / b_pyramid=2 / b_adapt=2 / b_bias=0 / direct=3 / weightb=1 / open_gop=0 / weightp=2 / keyint=250 / keyint_min=23 / scenecut=40 / intra_refresh=0 / rc_lookahead=50 / rc=2pass / mbtree=0 / bitrate=5891 / ratetol=1.0 / qcomp=1.00 / qpmin=0 / qpmax=69 / qpstep=4 / cplxblur=20.0 / qblur=0.5 / vbv_maxrate=50000 / vbv_bufsize=50000 / nal_hrd=none / ip_ratio=1.40 / pb_ratio=1.30 / aq=1:1.00
Language : English
Color primaries : BT.709-5, BT.1361, IEC 61966-2-4, SMPTE RP177
Transfer characteristics : BT.709-5, BT.1361
Matrix coefficients : BT.709-5, BT.1361, IEC 61966-2-4 709, SMPTE RP177

Audio #1
ID : 2
Format : DTS
Format/Info : Digital Theater Systems
Codec ID : A_DTS
Duration : 2h 28mn
Bit rate mode : Constant
Bit rate : 1 510 Kbps
Channel(s) : 6 channels
Channel positions : Front: L C R, Side: L R, LFE
Sampling rate : 48.0 KHz
Bit depth : 24 bits
Compression mode : Lossy
Stream size : 1.56 GiB (19%)
Title : 48.0 KHz, DTS, 6 channels, 1510 Kbps
Language : Russian

Audio #2
ID : 3
Format : AC-3
Format/Info : Audio Coding 3
Mode extension : CM (complete main)
Codec ID : A_AC3
Duration : 2h 28mn
Bit rate mode : Constant
Bit rate : 640 Kbps
Channel(s) : 1 channel
Channel positions : Front: C
Sampling rate : 48.0 KHz
Bit depth : 16 bits
Compression mode : Lossy
Stream size : 679 MiB (8%)
Title : 48.0 KHz, AC3, 1 channel, 640 Kbps
Language : Russian

Menu
00:00:00.000 : en:00:00:00.000
00:04:00.407 : en:00:04:00.407
00:08:27.257 : en:00:08:27.257
00:09:44.918 : en:00:09:44.918
00:12:57.068 : en:00:12:57.068
00:15:17.917 : en:00:15:17.917
00:22:54.373 : en:00:22:54.373
00:26:51.944 : en:00:26:51.944
00:29:58.338 : en:00:29:58.338
00:35:52.400 : en:00:35:52.400
00:42:41.476 : en:00:42:41.476
00:46:03.344 : en:00:46:03.344
00:48:36.080 : en:00:48:36.080
00:55:13.352 : en:00:55:13.352
01:01:13.003 : en:01:01:13.003
01:04:29.532 : en:01:04:29.532
01:06:50.632 : en:01:06:50.632
01:13:54.347 : en:01:13:54.347
01:14:38.349 : en:01:14:38.349
01:17:12.586 : en:01:17:12.586
01:21:11.075 : en:01:21:11.075
01:28:33.975 : en:01:28:33.975
01:35:22.926 : en:01:35:22.926
01:40:35.738 : en:01:40:35.738
01:46:30.884 : en:01:46:30.884
01:54:40.999 : en:01:54:40.999
01:57:20.617 : en:01:57:20.617
02:00:59.752 : en:02:00:59.752
02:04:17.408 : en:02:04:17.408
02:10:55.806 : en:02:10:55.806
02:18:33.597 : en:02:18:33.597
02:22:05.892 : en:02:22:05.892



pb.wtf



Скачать Москва слезам не верит через торрент http://i29.fastpic.ru/big/2011/1122/82/f4ec430624c86df4cb606002ea763782.jpg Скачать фильм Москва слезам не верит через торрент бесплантно в хорошем качестве Описание: Москва пятидесятых годов. Три молодые провинциалки приезжают в Москву в поисках того, что ищут люди во всех столицах мира - ... 9.8 10 9
Info! Золотая раздача, скачанное не засчитывается.
Торрент: Зарегистрирован [2011-11-22 15:41] · скачан: 251 раз
Статус: √ проверено
Размер: 8.33 GB
Как cкачать? Как скачать Москва слезам не верит через торрент | qTorrent

% Раздел Тема Автор DL S | L
Наши фильмы (HD, WEB-DL 720p, 1080p) [ 5.54 GB ] Москва слезам не верит [1979 BDRip-HEVC 1080p] ADVOKAT69 Скачать
1 | 0
Кино СССР [ 2.19 GB ] Москва слезам не верит [1979 DVDRip] DEVI Скачать
1 | 0
Документальные фильмы и телепередачи [ 758 MB ] Москва слезам не верит. Рождение легенды [2015 Документальный SATRip Оригинал] Бумер Скачать
1 | 0
Фильмы (HD 720p, 1080p) (48-60 fps) [ 18.63 GB ] Москва слезам не верит [1979 СССР BDRip 1080p / 60 FPS Оригинальный] Tiberiumsun69 Скачать
3 | 0
Кино СССР [ 2.12 GB ] Москва слезам не верит [1979 DVDRip-AVC] -=Cherry=- Скачать
1 | 0
Кино СССР [ 3.34 GB ] Москва слезам не верит [1979 BDRip-AVC] jb_alex Скачать
1 | 0

22-11-2011 16:05 Москва слезам не верит Скачать торрент  

jb_alex
Постер тебе перезалила. Твой не отображался.pb.wtf



22-11-2011 19:32 Москва слезам не верит Скачать торрент  

Во молодец!!! спасибо большое !!!pb.wtf



30-03-2012 16:59 Москва слезам не верит Скачать торрент  

pb.wtf



10-02-2013 08:35 Москва слезам не верит Скачать торрент  

lyokaa
спасибо.pb.wtf



    Дорогой пользователь! Огромная просьба, поблагодарите релизера, оцените раздачу и оставьте свои комментарий, если Вы скачали Москва слезам не верит через торрент бесплатно! Внесите свою лепту в развитие PiratBit!
    Комментировать посты могут только пользователи прошедшие не сложную регистрацию
    Показать сообщения:    

    Москва слезам не верит через торрент
    Скачать бесплатно Москва слезам не верит
    Москва слезам не верит скачать торрент
    Москва слезам не верит смотреть онлайн
    Cкачать фильм Москва слезам не верит бесплатно
    Москва слезам не верит скачать торрент в хорошем качестве
    Москва слезам не верит смотреть онлайн бесплатно в хорошем качестве


    Вы не можете начинать темы
    Вы не можете отвечать на сообщения
    Вы не можете редактировать свои сообщения
    Вы не можете удалять свои сообщения
    Вы не можете голосовать в опросах
    Вы не можете прикреплять файлы к сообщениям
    Вы можете скачивать файлы