Ссылка на приватное зеркало всего за 1$. Внимание количество ограничено!!!

iTunes

1+1

iTunes

мы

WEB-DL

1

iTunes

Чернобыль

iTunes

Ральф против интернета

Лицензия

ПШазам

Лицензия

Оно 2

Лицензия

30
pack

Вам бонус

ВАЖНО

!!Акция!!

Alien_RageХит недели

RePack

Resident Evil 21

ИГРА 18+

pack

RePack

jed

!!Акция!!

Alien_Rage

RePack

fifa19

RePack

Assassins Creed: Odyssey

RePack

NEED FOR SPEED™ PAYBACK

3 сезон

9 сезон

Бесстыжие 9 сезон

Все сериалы

все сериалы на PB.wtf

RePack

FAR CRY 5
Ребята, катастрофически не хватает 1900р. для оплаты серверов за Октябрь (всвязи с блокировками трафик упал в 3 раза), 1-2р., выручайте.
  

Москва слезам не верит (Владимир Меньшов) [1979 г., драма, мелодрама, комедия, BDRip-AVC] pb.wtf

Москва слезам не верит через торрент pb.wtf

Раздают: 1 [ 0 KB/s ]
Размер: 3.34 GB | Добавлен: 8 лет назад | Торрент скачан:249 раз
Скачать  

22-11-2011 21:17 Москва слезам не верит Скачать торрент  

Москва слезам не верит

Год выхода: 1979
Страна: СССР
Жанр: драма, мелодрама, комедия
Продолжительность: 02:28:17
Перевод: Оригинал

Режиссер: Владимир Меньшов
В ролях: Вера Алентова, Ирина Муравьёва, Алексей Баталов, Раиса Рязанова, Александр Фатюшин, Борис Сморчков, Виктор Уральский, Валентина Ушакова, Юрий Васильев, Евгения Ханаева

Описание: Москва пятидесятых годов. Три молодые провинциалки приезжают в Москву в поисках того, что ищут люди во всех столицах мира - любви, счастья и достатка. Их судьбы складываются именно так, как предполагает характер каждой из девушек. Антонина выходит замуж, растит детей, любит мужа. Людмиле Москва представляется лотереей, в которой она должна выиграть свое особенное счастье. Катерина же - отчаянно влюбляется, но избранник ее оставляет. Однако она не опускает руки, в одиночку растит дочь и к тому же успевает сделать блестящую карьеру. В сорок лет судьба дарит ей встречу с прекрасным человеком и настоящую любовь...

Качество: BDRip-AVC
Формат: MKV
Видео кодек: H.264
Аудио кодек: AC3
Видео: 720x544 pix, 2330 Kbps, 23.976 fps, High L4.1
Аудио:
48.0 KHz, AC3, 6 channels, 448 Kbps
48.0 KHz, AC3, 1 channel, 448 Kbps
General
Unique ID : 192804762684274857300240100184618277898 (0x910CD8B9F3DF9BDD8B453383A77D9C0A)
Complete name : F:BDRip-AVCМосква слезам не верит (1979).mkv
Format : Matroska
Format version : Version 2
File size : 3.34 GiB
Duration : 2h 28mn
Overall bit rate : 3 228 Kbps
Encoded date : UTC 2011-11-22 21:00:39
Writing application : mkvmerge v4.9.1 ('Ich will') сборка от Jul 11 2011 23:53:15
Writing library : libebml v1.2.1 + libmatroska v1.1.1

Video
ID : 1
Format : AVC
Format/Info : Advanced Video Codec
Format profile : High L4.1
Format settings, CABAC : Yes
Format settings, ReFrames : 4 frames
Codec ID : V_MPEG4/ISO/AVC
Duration : 2h 28mn
Bit rate : 2 330 Kbps
Width : 720 pixels
Height : 544 pixels
Display aspect ratio : 4:3
Frame rate : 23.976 fps
Color space : YUV
Chroma subsampling : 4:2:0
Bit depth : 8 bits
Scan type : Progressive
Bits/(Pixel*Frame) : 0.248
Stream size : 2.35 GiB (70%)
Title : for freeisland
Writing library : x264 core 116 r2074 2641b9e
Encoding settings : cabac=1 / ref=4 / deblock=1:-2:-2 / analyse=0x3:0x133 / me=hex / subme=8 / psy=1 / psy_rd=1.00:0.15 / mixed_ref=1 / me_range=16 / chroma_me=1 / trellis=1 / 8x8dct=1 / cqm=0 / deadzone=21,11 / fast_pskip=1 / chroma_qp_offset=-3 / threads=4 / sliced_threads=0 / nr=0 / decimate=1 / interlaced=0 / bluray_compat=0 / constrained_intra=0 / bframes=9 / b_pyramid=2 / b_adapt=2 / b_bias=0 / direct=3 / weightb=1 / open_gop=0 / weightp=2 / keyint=250 / keyint_min=23 / scenecut=40 / intra_refresh=0 / rc_lookahead=50 / rc=2pass / mbtree=0 / bitrate=2330 / ratetol=1.0 / qcomp=1.00 / qpmin=0 / qpmax=69 / qpstep=4 / cplxblur=20.0 / qblur=0.5 / vbv_maxrate=50000 / vbv_bufsize=50000 / nal_hrd=none / ip_ratio=1.40 / pb_ratio=1.30 / aq=1:1.00
Language : English
Color primaries : BT.709-5, BT.1361, IEC 61966-2-4, SMPTE RP177
Transfer characteristics : BT.709-5, BT.1361
Matrix coefficients : BT.709-5, BT.1361, IEC 61966-2-4 709, SMPTE RP177

Audio #1
ID : 2
Format : AC-3
Format/Info : Audio Coding 3
Mode extension : CM (complete main)
Codec ID : A_AC3
Duration : 2h 28mn
Bit rate mode : Constant
Bit rate : 448 Kbps
Channel(s) : 1 channel
Channel positions : Front: C
Sampling rate : 48.0 KHz
Bit depth : 16 bits
Compression mode : Lossy
Stream size : 475 MiB (14%)
Title : 1 channel
Language : Russian

Audio #2
ID : 3
Format : AC-3
Format/Info : Audio Coding 3
Mode extension : CM (complete main)
Codec ID : A_AC3
Duration : 2h 28mn
Bit rate mode : Constant
Bit rate : 448 Kbps
Channel(s) : 6 channels
Channel positions : Front: L C R, Side: L R, LFE
Sampling rate : 48.0 KHz
Bit depth : 16 bits
Compression mode : Lossy
Stream size : 475 MiB (14%)
Title : 6 channels
Language : Russian



pb.wtf



Скачать Москва слезам не верит через торрент http://i29.fastpic.ru/big/2011/1123/88/6aa0fc9cdd0828c09a5c89d588582b88.jpg Скачать фильм Москва слезам не верит через торрент бесплантно в хорошем качестве Описание: Москва пятидесятых годов. Три молодые провинциалки приезжают в Москву в поисках того, что ищут люди во всех столицах мира - ... 10 10 6
Info! Золотая раздача, скачанное не засчитывается.
Торрент: Зарегистрирован [2011-11-22 21:17] · скачан: 249 раз
Статус: √ проверено
Размер: 3.34 GB
Как cкачать? Как скачать Москва слезам не верит через торрент | qTorrent

% Раздел Тема Автор DL S | L
Наши фильмы (HD, WEB-DL 720p, 1080p) [ 5.54 GB ] Москва слезам не верит [1979 BDRip-HEVC 1080p] ADVOKAT69 Скачать
1 | 0
Кино СССР [ 2.19 GB ] Москва слезам не верит [1979 DVDRip] DEVI Скачать
3 | 0
Документальные фильмы и телепередачи [ 758 MB ] Москва слезам не верит. Рождение легенды [2015 Документальный SATRip Оригинал] Бумер Скачать
1 | 0
Фильмы (HD 720p, 1080p) (48-60 fps) [ 18.63 GB ] Москва слезам не верит [1979 СССР BDRip 1080p / 60 FPS Оригинальный] Tiberiumsun69 Скачать
2 | 0
Кино СССР [ 8.33 GB ] Москва слезам не верит [1979 BDRip 720p] jb_alex Скачать
1 | 0
Кино СССР [ 2.12 GB ] Москва слезам не верит [1979 DVDRip-AVC] -=Cherry=- Скачать
1 | 0

28-11-2019 20:33  

Отключить всю рекламу на сайте

22-11-2011 21:40 Москва слезам не верит Скачать торрент  

Класика.Забираю!pb.wtf



22-11-2011 22:51 Москва слезам не верит Скачать торрент  

За такой фильм только огромная благодарность.pb.wtf



23-11-2011 03:33 Москва слезам не верит Скачать торрент  

barsag писал(а):

жуткое гомно

это ты про себя ???
потому что фильм гениальный !!! он из тех которые можно смотреть тысячи раз!!!pb.wtf



03-01-2012 08:25 Москва слезам не верит Скачать торрент  

tserkovnye

согласен с тобой ...
это он явно про себяpb.wtf



    Дорогой пользователь! Огромная просьба, поблагодарите релизера, оцените раздачу и оставьте свои комментарий, если Вы скачали Москва слезам не верит через торрент бесплатно! Внесите свою лепту в развитие PiratBit!
    Комментировать посты могут только пользователи прошедшие не сложную регистрацию
    Показать сообщения:    

    Москва слезам не верит через торрент
    Скачать бесплатно Москва слезам не верит
    Москва слезам не верит скачать торрент
    Москва слезам не верит смотреть онлайн
    Cкачать фильм Москва слезам не верит бесплатно
    Москва слезам не верит скачать торрент в хорошем качестве
    Москва слезам не верит смотреть онлайн бесплатно в хорошем качестве


    Вы не можете начинать темы
    Вы не можете отвечать на сообщения
    Вы не можете редактировать свои сообщения
    Вы не можете удалять свои сообщения
    Вы не можете голосовать в опросах
    Вы не можете прикреплять файлы к сообщениям
    Вы можете скачивать файлы