1 сезон

1 сезон

iTunes

1

КиноПоиск HD

Кинопоиск HD

iTunes

13

1 сезон

RePack

30

Ultimate

ВАЖНО

ИГРА 18+

pack

RePack

MK11
pack

Легкие деньги

RePack

jed

RePack

fifa19

RePack

RDR2

RePack

NEED FOR SPEED™ PAYBACK

4 сезон

9 сезон

Бесстыжие 9 сезон

Все сериалы

все сериалы на PB.wtf

RePack

FAR CRY 5
  
Magnet ссылка

Поезд-тюрьма / Смертельный экспресс / Con Express (Терри Каннингхэм / Terry Kuningham) [2002, Боевик, DVDRip] MVO + Eng pb.wtf

Поезд-тюрьма через торрент pb.wtf

Размер: 1.75 GB | Добавлен: 9 лет 4 мес. назад | Торрент скачан:64 раза
Скачать  

24-11-2011 21:21 Поезд-тюрьма Скачать торрент  

Поезд-тюрьма / Смертельный экспресс / Con Express


Страна: США
Жанр: Боевик
Год выпуска: 2002
Продолжительность: 1:30:55
Перевод: Профессиональный (многоголосый закадровый) "ВОЛЬГА"
Cубтитры: нет
Оригинальная аудиодорожка: английский



Режиссер: Терри Каннингхэм / Terry KuninghamВ ролях: Шон Патрик Флэнери / Sean Patrick Flanery, Арнольд Вослу / Arnold Vosloo, Тим Томерсон / Tim Thomerson, Урсула Карвен / Ursula KarvenОписание: Американские спецслужбы, занимающиеся расследованием незаконной торговли химическим оружием, выходят на след известного российского криминального авторитета Семенова, находящегося в США. Благодаря совместным усилиям федерального агента Алекса Брукса и сотрудницы российских спецслужб Натальи Баталовой, смертельный груз перехвачен и загружен в поезд для транспортировки. Семенов пойман, но ему удается бежать из-под стражи. Стремясь вернуть свой товар и деньги, он организует налет на поезд с высокотоксичным оружием. Начинается бешеная гонка, счёт в которой идет на секунды. Бруксу и Баталовой необходимо не только обезвредить Семенова и его банду, но и предотвратить катастрофу, грозящую миру…Доп. информация:
Кинопоиск: 4.571/10 (30 голосов)
IMDB: 4.2/10 (292 голоса)



Качество видео: DVDRip
Формат видео: AVI
Видео: 720*544 (4:3), 1852 kbps, 25.000 fps
Видео кодек: XviD
Аудио кодек: AC-3
Аудио: Русский (AC-3, 448 kbps, CBR, 6 ch (Front: L C R, Surround: L R, LFE), 48.0 kHz)
Аудио 2: Английский (AC-3, 448 kbps, CBR, 6 ch (Front: L C R, Surround: L R, LFE), 48.0 kHz)
General
Complete name : Поезд-тюрьма (Con Express) DVDRip 1.75Gb.avi
Format : AVI
Format/Info : Audio Video Interleave
File size : 1.75 GiB
Duration : 1h 30mn
Overall bit rate : 2 757 Kbps
Writing application : VirtualDubMod 1.5.4.1 (build 2178/release)
Writing library : VirtualDubMod build 2178/release
Video
ID : 0
Format : MPEG-4 Visual
Format profile : Advanced Simple@L5
Format settings, BVOP : Yes
Format settings, QPel : No
Format settings, GMC : No warppoints
Format settings, Matrix : Custom
Codec ID : XVID
Codec ID/Hint : XviD
Duration : 1h 30mn
Bit rate : 1 852 Kbps
Width : 720 pixels
Height : 544 pixels
Display aspect ratio : 4:3
Frame rate : 25.000 fps
Resolution : 8 bits
Colorimetry : 4:2:0
Scan type : Progressive
Bits/(Pixel*Frame) : 0.189
Stream size : 1.18 GiB (67%)
Writing library : XviD 58
Audio #1
ID : 1
Format : AC-3
Format/Info : Audio Coding 3
Codec ID : 2000
Duration : 1h 30mn
Bit rate mode : Constant
Bit rate : 448 Kbps
Channel(s) : 6 channels
Channel positions : Front: L C R, Surround: L R, LFE
Sampling rate : 48.0 KHz
Stream size : 291 MiB (16%)
Alignment : Aligned on interleaves
Interleave, duration : 96 ms (2.40 video frames)
Interleave, preload duration : 96 ms
Language : Russian
Audio #2
ID : 2
Format : AC-3
Format/Info : Audio Coding 3
Codec ID : 2000
Duration : 1h 30mn
Bit rate mode : Constant
Bit rate : 448 Kbps
Channel(s) : 6 channels
Channel positions : Front: L C R, Surround: L R, LFE
Sampling rate : 48.0 KHz
Stream size : 291 MiB (16%)
Alignment : Aligned on interleaves
Interleave, duration : 96 ms (2.40 video frames)
Interleave, preload duration : 96 ms
Language : English
2 Mbit/s pb.wtf



Скачать Поезд-тюрьма через торрент http://i13.fastpic.ru/big/2011/0107/5e/a78bfeb290459d63f01371007724fb5e.png Скачать фильм Поезд-тюрьма через торрент бесплантно в хорошем качестве Описание: Американские спецслужбы, занимающиеся расследованием незаконной торговли химическим оружием, выходят на след известного ... 10 10 1
Info! Золотая раздача, скачанное не засчитывается.
Торрент: Зарегистрирован [2011-11-24 21:21] · скачан: 64 раз
Статус: √ проверено
Размер: 1.75 GB
Как cкачать? Как скачать Поезд-тюрьма через торрент | UTorrent

28-11-2019 20:33  

Отключить всю рекламу на сайте

    Дорогой пользователь! Огромная просьба, поблагодарите релизера, оцените раздачу и оставьте свои комментарий, если Вы скачали Поезд-тюрьма через торрент бесплатно! Внесите свою лепту в развитие PiratBit!
    Комментировать посты могут только пользователи прошедшие не сложную регистрацию
    Показать сообщения:    

    Поезд-тюрьма через торрент
    Скачать бесплатно Поезд-тюрьма
    Поезд-тюрьма скачать торрент
    Поезд-тюрьма смотреть онлайн
    Cкачать фильм Поезд-тюрьма бесплатно
    Поезд-тюрьма скачать торрент в хорошем качестве
    Поезд-тюрьма смотреть онлайн бесплатно в хорошем качестве


    Вы не можете начинать темы
    Вы не можете отвечать на сообщения
    Вы не можете редактировать свои сообщения
    Вы не можете удалять свои сообщения
    Вы не можете голосовать в опросах
    Вы не можете прикреплять файлы к сообщениям
    Вы можете скачивать файлы