1 сезон

3 сезон

iTunes

1

iTunes

MVO

iTunes

13

1 сезон

RePack

30

Deluxe

pack

Лицензия

ВАЖНО

ИГРА 18+

pack

RePack

MK11

RePack

jed

RePack

fifa19

RePack

RDR2

RePack

NEED FOR SPEED™ PAYBACK

4 сезон

9 сезон

Бесстыжие 9 сезон

Все сериалы

все сериалы на PB.wtf

RePack

FAR CRY 5

Anonymous, доброе утро, мы катастрофически не успеваем собрать деньги на оплату серверов, помогите нам пожалуйста 5,10,15р., для нас важна любая помощь . В качестве благодарности мы отключим Вам всю рекламу на сайте (укажите свой ник в строку Ваше имя)!

×
  
Magnet ссылка

Чужие на районе / Attack the Block (Джо Корниш / Joe Cornish) [2011, фантастика, боевик, комедия, DVD9] R5 «Вольга» pb.wtf

Чужие на районе через торрент pb.wtf

Размер: 5.98 GB | Добавлен: 9 лет 8 мес. назад | Торрент скачан:134 раза
Скачать  

25-11-2011 18:36 Чужие на районе Скачать торрент  


Чужие на районе / Attack the Block
«Реальные пацаны против пришельцев»
Страна: Франция, Великобритания
Студия: Big Talk Productions, Film4, Studio Canal, UK Film Council
Жанр: фантастика, боевик, комедия
Год выпуска: 2011
Мировая премьера: 13 мая 2011
Российская премьера: 17 ноября 2011, «Вольга»
Дата выхода DVD: 24 ноября 2011, «Вольга»
Продолжительность: 01:24:12
Перевод: Профессиональный (многоголосый закадровый) [Лицензия]
Cубтитры: русские
Оригинальная аудиодорожка: английский
Режиссер: Джо Корниш / Joe Cornish
В ролях: Ник Фрост, Джоди Уиттакер, Люк Тредэвэй, Терри Нотари, John Boyega, Джои Анса, Алекс Эсмейл, Кристофер Уилсон, Flaminia Cinque, Ли Николас Харрис...
Описание: Инопланетное вторжение начинается… Но на этот раз пришельцев угораздило приземлиться не в том районе! Здесь всем заправляют реальные пацаны. Теперь они — последняя надежда человечества. Самые опасные существа во вселенной столкнутся с абсолютным злом. Кто кого?
Бонусы: Смотрите на DVD

Релиз группы:
Качество: DVD9 R5
Формат: DVD-Video
Видео кодек: MPEG2
Аудио кодек: AC3
Видео: PAL 16:9 (720x576(0.814)) MPEG Video, 25,000 кадр/сек, 8445 Кбит/сек
Аудио #1: Russian (Dolby AC3, 6 ch) 256 Кбит/сек, 48,0 КГц
Аудио #2: English (Dolby AC3, 6 ch) 256 Кбит/сек, 48,0 КГц
Аудио #3: Russian (Dolby AC3, 6 ch) 256 Кбит/сек, 48,0 КГц (ненормативная лексика)



Title:
Size: 5.98 Gb ( 6 266 864 KBytes ) - DVD-9
Enabled regions: 1, 2, 3, 4, 5, 6, 7, 8

VTS_01 :
Play Length: 00:00:10
Video: PAL 16:9 (720x576) VBR, Auto Pan&Scan, Auto Letterboxed

VTS_02 :
Play Length: 00:00:06
Video: PAL 16:9 (720x576) VBR, Auto Pan&Scan, Auto Letterboxed

VTS_03 :
Play Length: 00:00:17
Video: PAL 16:9 (720x576) VBR, Auto Pan&Scan, Auto Letterboxed
Audio:
Not specified (Dolby AC3, 2 ch)

VTS_04 :
Play Length: 00:00:21
Video: PAL 16:9 (720x576) VBR, Auto Pan&Scan, Auto Letterboxed
Audio:
Not specified (Dolby AC3, 2 ch)
Not specified (Dolby AC3, 2 ch)
Not specified (Dolby AC3, 2 ch)
Subtitles:
Not specified
Not specified
Not specified

VTS_05 :
Play Length: 00:01:37
Video: PAL 16:9 (720x576) VBR, Auto Pan&Scan, Auto Letterboxed
Audio:
Not specified (Dolby AC3, 2 ch)
Not specified (Dolby AC3, 2 ch)
Not specified (Dolby AC3, 2 ch)
Subtitles:
Not specified
Not specified
Not specified

VTS_06 :
Play Length: 01:24:12
Video: PAL 16:9 (720x576) VBR, Auto Pan&Scan, Auto Letterboxed
Audio:
Russian (Dolby AC3, 6 ch)
Russian (Dolby AC3, 6 ch)
English (Dolby AC3, 6 ch)
Subtitles:
Not specified
Not specified
Not specified

VTS_07 :
Play Length: 00:02:10
Video: PAL 16:9 (720x576) VBR, Auto Pan&Scan, Auto Letterboxed
Audio:
Not specified (Dolby AC3, 2 ch)
Not specified (Dolby AC3, 2 ch)
Not specified (Dolby AC3, 2 ch)
Subtitles:
Not specified
Not specified
Not specified

VTS_08 :
Play Length: 00:02:34
Video: PAL 16:9 (720x576) VBR, Auto Pan&Scan, Auto Letterboxed
Audio:
Not specified (Dolby AC3, 2 ch)
Not specified (Dolby AC3, 2 ch)
Not specified (Dolby AC3, 2 ch)
Subtitles:
Not specified
Not specified
Not specified

VTS_09 :
Play Length: 00:02:07
Video: PAL 16:9 (720x576) VBR, Auto Pan&Scan, Auto Letterboxed
Audio:
Not specified (Dolby AC3, 2 ch)
Not specified (Dolby AC3, 2 ch)
Not specified (Dolby AC3, 2 ch)
Subtitles:
Not specified
Not specified
Not specified
Общее
Полное имя : G:\Новинки 2011\Chuzhie.na.rajone.2011.DVD9\VIDEO_TS\VTS_06_2.VOB
Формат : MPEG-PS
Размер файла : 1024 Мбайт
Продолжительность : 15 м.
Общий поток : 9400 Кбит/сек

Видео
Идентификатор : 224 (0xE0)
Формат : MPEG Video
Версия формата : Version 2
Профиль формата : Main@Main
Параметр BVOP формата : Да
Параметр матрицы формата : Выборочная
Параметр GOP формата : M=3, N=15
Продолжительность : 15 м.
Вид битрейта : Переменный
Битрейт : 8445 Кбит/сек
Максимальный битрейт : 9000 Кбит/сек
Ширина : 720 пикселей
Высота : 576 пикселей
Соотношение сторон : 16:9
Частота кадров : 25,000 кадров/сек
Стандарт вещания : PAL
Цветовое пространство : YUV
Субдискретизация насыщенности : 4:2:0
Битовая глубина : 8 бит
Тип развёртки : Чересстрочная
Порядок развёртки : Верхнее поле первое
Метод сжатия : С потерями
Бит/(Пиксели*Кадры) : 0.814
Размер потока : 920 Мбайт (90%)

Аудио #1
Идентификатор : 189 (0xBD)-128 (0x80)
Формат : AC-3
Формат/Информация : Audio Coding 3
Расширение режима : CM (complete main)
Режим смешивания : DVD-Video
Продолжительность : 15 м.
Вид битрейта : Постоянный
Битрейт : 256 Кбит/сек
Каналы : 6 каналов
Расположение каналов : Front: L C R, Side: L R, LFE
Частота : 48,0 КГц
Битовая глубина : 16 бит
Метод сжатия : С потерями
Задержка видео : -224 мс.
Размер потока : 27,9 Мбайт (3%)

Аудио #2
Идентификатор : 189 (0xBD)-129 (0x81)
Формат : AC-3
Формат/Информация : Audio Coding 3
Расширение режима : CM (complete main)
Режим смешивания : DVD-Video
Продолжительность : 15 м.
Вид битрейта : Постоянный
Битрейт : 256 Кбит/сек
Каналы : 6 каналов
Расположение каналов : Front: L C R, Side: L R, LFE
Частота : 48,0 КГц
Битовая глубина : 16 бит
Метод сжатия : С потерями
Задержка видео : -224 мс.
Размер потока : 27,9 Мбайт (3%)

Аудио #3
Идентификатор : 189 (0xBD)-130 (0x82)
Формат : AC-3
Формат/Информация : Audio Coding 3
Расширение режима : CM (complete main)
Режим смешивания : DVD-Video
Продолжительность : 15 м.
Вид битрейта : Постоянный
Битрейт : 256 Кбит/сек
Каналы : 6 каналов
Расположение каналов : Front: L C R, Side: L R, LFE
Частота : 48,0 КГц
Битовая глубина : 16 бит
Метод сжатия : С потерями
Задержка видео : -224 мс.
Размер потока : 27,9 Мбайт (3%)

Текст
Идентификатор : 189 (0xBD)-34 (0x22)
Формат : RLE
Формат/Информация : Run-length encoding
Режим смешивания : DVD-Video
Продолжительность : 15 м.
Задержка видео : 3 с. 120 мс.










pb.wtf



Скачать Чужие на районе через торрент http://i3.imageban.ru/out/2011/11/25/2df6bde41448f1f83b6b478a13f8cdb9.jpg Скачать фильм Чужие на районе через торрент бесплантно в хорошем качестве Описание: Инопланетное вторжение начинается… Но на этот раз пришельцев угораздило приземлиться не в том районе! Здесь всем заправляют ... 4.6 10 12
Info! Золотая раздача, скачанное не засчитывается.
Торрент: Зарегистрирован [2011-11-25 18:36] · скачан: 134 раз
Статус: √ проверено
Размер: 5.98 GB
Как cкачать? Как скачать Чужие на районе через торрент | UTorrent

28-11-2019 20:33  

Отключить всю рекламу на сайте

25-11-2011 19:53 Чужие на районе Скачать торрент  

Фильм офигенский советую всем глянуть!pb.wtf



25-11-2011 20:44 Чужие на районе Скачать торрент  

Почему-то на кинопоиске фильм дубляж-как так.Точно лицензия?!!!pb.wtf



29-11-2011 16:03 Чужие на районе Скачать торрент  

сделай пятёрку очень надо.pb.wtf



    Дорогой пользователь! Огромная просьба, поблагодарите релизера, оцените раздачу и оставьте свои комментарий, если Вы скачали Чужие на районе через торрент бесплатно! Внесите свою лепту в развитие PiratBit!
    Комментировать посты могут только пользователи прошедшие не сложную регистрацию
    Показать сообщения:    

    Чужие на районе через торрент
    Скачать бесплатно Чужие на районе
    Чужие на районе скачать торрент
    Чужие на районе смотреть онлайн
    Cкачать фильм Чужие на районе бесплатно
    Чужие на районе скачать торрент в хорошем качестве
    Чужие на районе смотреть онлайн бесплатно в хорошем качестве


    Вы не можете начинать темы
    Вы не можете отвечать на сообщения
    Вы не можете редактировать свои сообщения
    Вы не можете удалять свои сообщения
    Вы не можете голосовать в опросах
    Вы не можете прикреплять файлы к сообщениям
    Вы можете скачивать файлы