2 сезон

iTunes

MVO

1

2 сезон

iTunes

iTunes

1 сезон

RePack

30

Ultimate

ВАЖНО

ИГРА 18+

pack

RePack

MK11
pack

Легкие деньги

RePack

jed

RePack

fifa19

RePack

RDR2

RePack

NEED FOR SPEED™ PAYBACK

4 сезон

9 сезон

Бесстыжие 9 сезон

Все сериалы

все сериалы на PB.wtf

RePack

FAR CRY 5

Anonymous, добрый вечер, мы не успеваем собрать деньги на оплату серверов за декабрь и январь, помогите нам пожалуйста в это трудное время. В качестве благодарности мы отключим Вам всю рекламу на сайте (укажите свой ник в строку Ваше имя)!

×
  
Magnet ссылка

ВВС: Атом / BBC. Atom [2007 г., документальный, HDRip] pb.wtf

ВВС: Атом через торрент pb.wtf

Размер: 2.67 GB | Добавлен: 9 лет 1 мес. назад | Торрент скачан:407 раз
Скачать  

26-11-2011 07:54 ВВС: Атом Скачать торрент  

ВВС: Атом / BBC. Atom

Год выпуска: 2007
Страна: Великобритания
Жанр: документальный
Продолжительность: 3 серии по 59 минут
Перевод: Профессиональный (одноголосый)

Описание: Сериал в очень интересной и доступной форме рассказывает о научном поиске за последние 100 лет, борьбе идей и личностей.
О современных проблемах в физике.

Качество: HDRip
Формат: AVI
Видео кодек: XviD
Аудио кодек: MP3
Видео: XVid 704x384 16:9 1900 Kbps 25 fps
Аудио: Russian mp3 128 Kbps 48KHz 2ch English mp3 128 Kbps 48KHz 2ch
Скрытая ирония истории Больцмана заключается в том, что когда он покончил с собой в 1906 году, он не знал, что был бы оправдан.
За год до того, как он умер, один молодой ученый опубликовал статью, в которой бесспорно и неопровержимо провозгласил реальность атома. Его звали Альберт Эйнштейн.
General
Complete name : BBC-Atom_1of3_Clash_of_Titans_704x384___aty-sasa.avi
Format : AVI
Format/Info : Audio Video Interleave
File size : 912 MiB
Duration : 58mn 47s
Overall bit rate : 2 169 Kbps
Writing application : VirtualDubModRus 1.5.10.2 (build 2540/release)
Writing library : VirtualDubMod build 2540/release

Video
Format : MPEG-4 Visual
Format profile : Streaming Video@L1
Format settings, BVOP : Yes
Format settings, QPel : No
Format settings, GMC : No warppoints
Format settings, Matrix : Default
Muxing mode : Packed bitstream
Codec ID : DX50
Codec ID/Hint : DivX 5
Duration : 58mn 47s
Bit rate : 1 899 Kbps
Width : 704 pixels
Height : 384 pixels
Display aspect ratio : 16/9
Frame rate : 25.000 fps
Resolution : 24 bits
Colorimetry : 4:2:0
Scan type : Progressive
Bits/(Pixel*Frame) : 0.281
Stream size : 798 MiB (88%)
Writing library : XviD 1.2.0.dev47 (UTC 2006-11-01)

Audio #1
Format : MPEG Audio
Format version : Version 1
Format profile : Layer 3
Codec ID : 55
Codec ID/Hint : MP3
Duration : 58mn 47s
Bit rate mode : Constant
Bit rate : 128 Kbps
Channel(s) : 2 channels
Sampling rate : 48.0 KHz
Resolution : 16 bits
Stream size : 53.8 MiB (6%)
Alignment : Aligned on interleaves
Interleave, duration : 40 ms (1.00 video frame)
Interleave, preload duration : 504 ms
Writing library : LAME3.93
Encoding settings : CBR

Audio #2
Format : MPEG Audio
Format version : Version 1
Format profile : Layer 3
Codec ID : 55
Codec ID/Hint : MP3
Duration : 58mn 47s
Bit rate mode : Constant
Bit rate : 128 Kbps
Channel(s) : 2 channels
Sampling rate : 48.0 KHz
Resolution : 16 bits
Stream size : 53.8 MiB (6%)
Alignment : Aligned on interleaves
Interleave, duration : 40 ms (1.00 video frame)
Interleave, preload duration : 504 ms
Writing library : LAME3.93
Encoding settings : CBR
Обнаружение того, что атомы созданы в звездах, несомненно, является одним из величайших достижений человечества, за исключением одной вопиющей проблемы, которую Хойл, никогда не сможет объяснить.
Звездным ядерным синтезом можно объяснить как изготовлены все элементы во Вселенной ... за исключением двух.
General
Complete name : BBC-Atom_2of3_The_Key_to_the_Cosmos_704x384___aty-sasa.avi
Format : AVI
Format/Info : Audio Video Interleave
File size : 909 MiB
Duration : 58mn 35s
Overall bit rate : 2 169 Kbps
Writing application : VirtualDubModRus 1.5.10.2 (build 2540/release)
Writing library : VirtualDubMod build 2540/release

Video
Format : MPEG-4 Visual
Format profile : Streaming Video@L1
Format settings, BVOP : Yes
Format settings, QPel : No
Format settings, GMC : No warppoints
Format settings, Matrix : Default
Muxing mode : Packed bitstream
Codec ID : DX50
Codec ID/Hint : DivX 5
Duration : 58mn 35s
Bit rate : 1 899 Kbps
Width : 704 pixels
Height : 384 pixels
Display aspect ratio : 16/9
Frame rate : 25.000 fps
Resolution : 24 bits
Colorimetry : 4:2:0
Scan type : Progressive
Bits/(Pixel*Frame) : 0.281
Stream size : 796 MiB (88%)
Writing library : XviD 1.2.0.dev47 (UTC 2006-11-01)

Audio #1
Format : MPEG Audio
Format version : Version 1
Format profile : Layer 3
Codec ID : 55
Codec ID/Hint : MP3
Duration : 58mn 35s
Bit rate mode : Constant
Bit rate : 128 Kbps
Channel(s) : 2 channels
Sampling rate : 48.0 KHz
Resolution : 16 bits
Stream size : 53.6 MiB (6%)
Alignment : Aligned on interleaves
Interleave, duration : 40 ms (1.00 video frame)
Interleave, preload duration : 504 ms
Writing library : LAME3.93
Encoding settings : CBR

Audio #2
Format : MPEG Audio
Format version : Version 1
Format profile : Layer 3
Codec ID : 55
Codec ID/Hint : MP3
Duration : 58mn 35s
Bit rate mode : Constant
Bit rate : 128 Kbps
Channel(s) : 2 channels
Sampling rate : 48.0 KHz
Resolution : 16 bits
Stream size : 53.6 MiB (6%)
Alignment : Aligned on interleaves
Interleave, duration : 40 ms (1.00 video frame)
Interleave, preload duration : 504 ms
Writing library : LAME3.93
Encoding settings : CBR
Фейнман сказал: "Мои студенты физики не понимают мою теорию квантовой электродинамики потому, что я ее не понимаю. Никто не понимает".
General
Complete name : BBC-Атом_3of3_The_Illusion_of_Reality_704x384___aty-sasa.avi
Format : AVI
Format/Info : Audio Video Interleave
File size : 915 MiB
Duration : 58mn 59s
Overall bit rate : 2 169 Kbps
Writing application : VirtualDubModRus 1.5.10.2 (build 2540/release)
Writing library : VirtualDubMod build 2540/release

Video
Format : MPEG-4 Visual
Format profile : Streaming Video@L1
Format settings, BVOP : Yes
Format settings, QPel : No
Format settings, GMC : No warppoints
Format settings, Matrix : Default
Muxing mode : Packed bitstream
Codec ID : DX50
Codec ID/Hint : DivX 5
Duration : 58mn 59s
Bit rate : 1 899 Kbps
Width : 704 pixels
Height : 384 pixels
Display aspect ratio : 16/9
Frame rate : 25.000 fps
Resolution : 24 bits
Colorimetry : 4:2:0
Scan type : Progressive
Bits/(Pixel*Frame) : 0.281
Stream size : 801 MiB (88%)
Writing library : XviD 1.2.0.dev47 (UTC 2006-11-01)

Audio #1
Format : MPEG Audio
Format version : Version 1
Format profile : Layer 3
Codec ID : 55
Codec ID/Hint : MP3
Duration : 58mn 59s
Bit rate mode : Constant
Bit rate : 128 Kbps
Channel(s) : 2 channels
Sampling rate : 48.0 KHz
Resolution : 16 bits
Stream size : 54.0 MiB (6%)
Alignment : Aligned on interleaves
Interleave, duration : 40 ms (1.00 video frame)
Interleave, preload duration : 504 ms
Writing library : LAME3.93
Encoding settings : CBR

Audio #2
Format : MPEG Audio
Format version : Version 1
Format profile : Layer 3
Codec ID : 55
Codec ID/Hint : MP3
Duration : 58mn 59s
Bit rate mode : Constant
Bit rate : 128 Kbps
Channel(s) : 2 channels
Sampling rate : 48.0 KHz
Resolution : 16 bits
Stream size : 54.0 MiB (6%)
Alignment : Aligned on interleaves
Interleave, duration : 40 ms (1.00 video frame)
Interleave, preload duration : 504 ms
Writing library : LAME3.93
Encoding settings : CBR
pb.wtf



Скачать ВВС: Атом через торрент http://okna-premium-nn.ru/_aty-sasa_/BBC-Atom/index_sm.png Скачать фильм ВВС: Атом через торрент бесплантно в хорошем качестве Описание: Сериал в очень интересной и доступной форме рассказывает о научном поиске за последние 100 лет, борьбе идей и личностей.О ... 10 10 1
Info! Золотая раздача, скачанное не засчитывается.
Торрент: Зарегистрирован [2011-11-26 07:54] · скачан: 407 раз
Статус: √ проверено
Размер: 2.67 GB
Как cкачать? Как скачать ВВС: Атом через торрент | UTorrent



Последний раз редактировалось: AlexBart (2011-11-26 20:12), всего редактировалось 2 раз(а)

28-11-2019 20:33  

Отключить всю рекламу на сайте

26-11-2011 11:44 ВВС: Атом Скачать торрент  

AlexBart
Перезалей скриншоты. Они не кликабельны. Или сделай полноразмерные.pb.wtf



26-11-2011 20:13 ВВС: Атом Скачать торрент  

Все!pb.wtf



    Дорогой пользователь! Огромная просьба, поблагодарите релизера, оцените раздачу и оставьте свои комментарий, если Вы скачали ВВС: Атом через торрент бесплатно! Внесите свою лепту в развитие PiratBit!
    Комментировать посты могут только пользователи прошедшие не сложную регистрацию
    Показать сообщения:    

    ВВС: Атом через торрент
    Скачать бесплатно ВВС: Атом
    ВВС: Атом скачать торрент
    ВВС: Атом смотреть онлайн
    Cкачать фильм ВВС: Атом бесплатно
    ВВС: Атом скачать торрент в хорошем качестве
    ВВС: Атом смотреть онлайн бесплатно в хорошем качестве


    Вы не можете начинать темы
    Вы не можете отвечать на сообщения
    Вы не можете редактировать свои сообщения
    Вы не можете удалять свои сообщения
    Вы не можете голосовать в опросах
    Вы не можете прикреплять файлы к сообщениям
    Вы можете скачивать файлы